Светлое будущее: Трилогия / Право на жизнь / A Better Tomorow / Ying hung boon sik: Trilogy (1986-1989) BDRip 1080p | Р, А

 
Автор Сообщение

Russian Mafia ®

Пол:

Стаж: 1 год 8 месяцев

Сообщений: 4252



Награды: 10 (Подробнее)

Mega Seeder 4 (Количество: 1) За внесенный вклад в развитие сайта (Количество: 1) Mega Seeder 2 (Количество: 1)
Торрент-статистика

Создавать темы 27-Апр-2016 06:44

[Цитировать]

Светлое будущее / Ying hung boon sik / 1986

Светлое будущее / Ying hung boon sik
Страна: Гонконг
Производство: Film Workshop Ltd., Cinema City
Год выпуска: 1986
Жанр: боевик, триллер, драма, криминал
Продолжительность: 01:35:16
Режиссер: Джон Ву
Авторы сценария: Хинг-Ка Чан, Сук-Ва Люн, Джон Ву
В ролях: Ланг Ти, Чоу Юнь-Фат, Лесли Чун, Эмили Чу, Вайсэ Лээ, Фенг Тиен, Джон Ву, Кеннет Цан, Фуй-Он Шин
Описание: Еще недавно близкие друзья Хо и Марк были большими авторитетами в гонконгской мафии, жили по понятиям, с каким-никаким кодексом правил. Но первый попал на три года в тюрьму и, освободившись, решил завязать, а второй, покалеченный во время перестрелки, теперь побирается. Новый босс преступной группировки, беспредельщик, выбившийся из шестерок-лизоблюдов, с садистским удовольствием пытается отыграться на друзьях за прежние унижения, а, кроме того, хочет втянуть в свои грязные дела младшего брата Хо, инспектора полиции…

Перевод: Многоголосый | Kravec + Многоголосый | Cinema Prestige + Авторский | Юрий Живов
Субтитры: русские, английские-Качество: BDRip 1080p
Формат: МКV
Видео кодек: AVC
Аудио кодек: DTS | АС3
Видео: 1920x1070 (16:9), 23.976 fps, MPEG-4 AVC ~11.1 Mbps avg, 0.226 bit/pixel
Аудио №1: 48.0 kHz, Digital Theater Systems, 3/2 (L,C,R,l,r) + LFE ch, ~1 510 kbps | CHI
Аудио №2: 48.0 kHz, Digital Theater Systems, 3/2 (L,C,R,l,r) + LFE ch, ~775 kbps | Kravec
Аудио №3: 48.0 kHz, AC3 Dolby Digital, 3/2 (L,C,R,l,r) + LFE ch, ~448 kbps | Юрий Живов
Аудио №4: 48.0 kHz, AC3 Dolby Digital, 3/2 (L,C,R,l,r) + LFE ch, ~384 kbps | Cinema Prestige
Формат субтитров: UTF-8 Plain Text
Дата премьеры (мир): 2 августа 1986
релиз на DVD: 22 октября 2009, «Cinema Prestige»
Скриншоты

Media Info

Format : Matroska
Format version : Version 2
File size : 9.47 GiB
Duration : 1h 35mn
Overall bit rate : 14.2 Mbps
Movie name : Светлое будущее / A Better Tomorrow (1986) BDRip 1080p by nextDred
Encoded date : UTC 2011-09-17 17:03:01
Writing application : mkvmerge v4.9.1 ('Ich will') сборка от Jul 11 2011 23:53:15
Writing library : libebml v1.2.1 + libmatroska v1.1.1
Video
ID : 7
Format : AVC
Format/Info : Advanced Video Codec
Format profile : High@L4.1
Format settings, CABAC : Yes
Format settings, ReFrames : 4 frames
Codec ID : V_MPEG4/ISO/AVC
Duration : 1h 35mn
Bit rate : 11.1 Mbps
Width : 1 920 pixels
Height : 1 070 pixels
Display aspect ratio : 16:9
Frame rate : 23.976 fps
Color space : YUV
Chroma subsampling : 4:2:0
Bit depth : 8 bits
Scan type : Progressive
Bits/(Pixel*Frame) : 0.226
Stream size : 7.22 GiB (76%)
Title : A.Better.Tomorrow.1986
Writing library : x264 core 114 r1924 08d04a4
Encoding settings : cabac=1 / ref=4 / deblock=1:-3:-3 / analyse=0x3:0x113 / me=umh / subme=9 / psy=1 / psy_rd=1.05:0.10 / mixed_ref=1 / me_range=32 / chroma_me=1 / trellis=2 / 8x8dct=1 / cqm=2 / deadzone=21,11 / fast_pskip=0 / chroma_qp_offset=-2 / threads=12 / sliced_threads=0 / nr=0 / decimate=1 / interlaced=0 / constrained_intra=0 / bframes=6 / b_pyramid=2 / b_adapt=2 / b_bias=0 / direct=3 / weightb=1 / open_gop=0 / weightp=2 / keyint=250 / keyint_min=23 / scenecut=40 / intra_refresh=0 / rc_lookahead=50 / rc=2pass / mbtree=1 / bitrate=11135 / ratetol=1.0 / qcomp=0.70 / qpmin=1 / qpmax=63 / qpstep=4 / cplxblur=20.0 / qblur=0.5 / vbv_maxrate=40000 / vbv_bufsize=40000 / nal_hrd=none / ip_ratio=1.40 / aq=2:0.80
Language : Chinese
Audio #1
ID : 1
Format : DTS
Format/Info : Digital Theater Systems
Codec ID : A_DTS
Duration : 1h 35mn
Bit rate mode : Constant
Bit rate : 1 510 Kbps
Channel(s) : 6 channels
Channel positions : Front: L C R, Side: L R, LFE
Sampling rate : 48.0 KHz
Bit depth : 16 bits
Compression mode : Lossy
Stream size : 1.00 GiB (11%)
Title : CANTONESE
Language : Chinese
Audio #2
ID : 4
Format : DTS
Format/Info : Digital Theater Systems
Codec ID : A_DTS
Duration : 1h 35mn
Bit rate mode : Constant
Bit rate : 755 Kbps
Channel(s) : 6 channels
Channel positions : Front: L C R, Side: L R, LFE
Sampling rate : 48.0 KHz
Bit depth : 24 bits
Compression mode : Lossy
Stream size : 514 MiB (5%)
Title : MVO "Kravec"
Language : Russian
Audio #3
ID : 5
Format : AC-3
Format/Info : Audio Coding 3
Mode extension : CM (complete main)
Codec ID : A_AC3
Duration : 1h 35mn
Bit rate mode : Constant
Bit rate : 448 Kbps
Channel(s) : 6 channels
Channel positions : Front: L C R, Side: L R, LFE
Sampling rate : 48.0 KHz
Bit depth : 16 bits
Compression mode : Lossy
Stream size : 305 MiB (3%)
Title : AVO Живов
Language : Russian
Audio #4
ID : 6
Format : AC-3
Format/Info : Audio Coding 3
Mode extension : CM (complete main)
Codec ID : A_AC3
Duration : 1h 35mn
Bit rate mode : Constant
Bit rate : 384 Kbps
Channel(s) : 6 channels
Channel positions : Front: L C R, Side: L R, LFE
Sampling rate : 48.0 KHz
Bit depth : 16 bits
Compression mode : Lossy
Stream size : 262 MiB (3%)
Title : MVO "Cinema Prestige"
Language : Russian
Text #1
ID : 2
Format : UTF-8
Codec ID : S_TEXT/UTF8
Codec ID/Info : UTF-8 Plain Text
Language : Russian
Text #2
ID : 3
Format : UTF-8
Codec ID : S_TEXT/UTF8
Codec ID/Info : UTF-8 Plain Text
Language : English

Светлое будущее 2: Ураганный огонь / Ying hung boon sik II / 1987

Светлое будущее 2: Ураганный огонь / Ying hung boon sik II
Страна: Гонконг
Производство: Film Workshop Ltd.
Год выпуска: 1987
Жанр: боевик, триллер, драма, криминал
Продолжительность: 01:43:37
Режиссер: Джон Ву
Авторы сценария: Джон Ву, Цуй Харк
В ролях: Ланг Ти, Чоу Юнь-Фат, Лесли Чун, Дин Шек, Сан Кван, Эмили Чу, Кеннет Цан, Н Ман-тат
Описание: Вторая часть фильма «Право на Жизнь» рассказывает о том, как бывший гангстер Хо, выйдя из тюрьмы, при помощи своего брата-полицейского Кита внедряется в банду фальшивомонетчиков. Когда жизни ее главаря Лунга начинает грозить опасность, братья переправляют его в Нью-Йорк под защиту своего друга и брата-близнеца Марка Гора — Кена. Спасая Лунга, Кен бесстрашно сражается с наемными убийцами, подосланными мафией. И следуя чувству долга, он оставляет свои дела и отправляется в Гонконг, чтобы вместе друзьями разобраться с бандитами на месте.

Перевод: Многоголосый | Kravec + Многоголосый | Cinema Prestige + Авторский | Юрий Живов
Субтитры: английские, русские-Качество: BDRip 1080p
Формат: МКV
Видео кодек: AVC
Аудио кодек: DTS | АС3
Видео: 1920x1012 (1.897), 23.976 fps, MPEG-4 AVC ~11.1 Mbps avg, 0.293 bit/pixel
Аудио №1: 48.0 kHz, Digital Theater Systems, 3/2 (L,C,R,l,r) + LFE ch, ~1 510 kbps | CHI
Аудио №2: 48.0 kHz, AC3 Dolby Digital, 3/2 (L,C,R,l,r) + LFE ch, ~448 kbps | Юрий Живов
Аудио №3: 48.0 kHz, AC3 Dolby Digital, 3/2 (L,C,R,l,r) + LFE ch, ~448 kbps | Cinema Prestige
Аудио №4: 48.0 kHz, Digital Theater Systems, 3/2 (L,C,R,l,r) + LFE ch, ~775 kbps | Kravec
Формат субтитров: UTF-8 Plain Text
Дата премьеры (мир): 17 декабря 1987
релиз на DVD: 17 ноября 2009, «Cinema Prestige»
Скриншоты

Media Info

Format : Matroska
Format version : Version 2
File size : 10.4 GiB
Duration : 1h 43mn
Overall bit rate : 14.3 Mbps
Movie name : Светлое будущее 2 / A Better Tomorrow 2 (1987) BDRip 1080p by nextDred
Encoded date : UTC 2011-09-17 18:13:35
Writing application : mkvmerge v4.9.1 ('Ich will') сборка от Jul 11 2011 23:53:15
Writing library : libebml v1.2.1 + libmatroska v1.1.1
Video
ID : 7
Format : AVC
Format/Info : Advanced Video Codec
Format profile : High@L4.1
Format settings, CABAC : Yes
Format settings, ReFrames : 4 frames
Codec ID : V_MPEG4/ISO/AVC
Duration : 1h 43mn
Bit rate : 11.1 Mbps
Width : 1 920 pixels
Height : 1 012 pixels
Display aspect ratio : 1.897
Frame rate : 23.976 fps
Color space : YUV
Chroma subsampling : 4:2:0
Bit depth : 8 bits
Scan type : Progressive
Bits/(Pixel*Frame) : 0.239
Stream size : 7.87 GiB (76%)
Title : A.Better.Tomorrow.II.1987
Writing library : x264 core 114 r1924 08d04a4
Encoding settings : cabac=1 / ref=4 / deblock=1:-3:-3 / analyse=0x3:0x113 / me=umh / subme=9 / psy=1 / psy_rd=1.05:0.10 / mixed_ref=1 / me_range=32 / chroma_me=1 / trellis=2 / 8x8dct=1 / cqm=2 / deadzone=21,11 / fast_pskip=0 / chroma_qp_offset=-2 / threads=12 / sliced_threads=0 / nr=0 / decimate=1 / interlaced=0 / constrained_intra=0 / bframes=6 / b_pyramid=2 / b_adapt=2 / b_bias=0 / direct=3 / weightb=1 / open_gop=0 / weightp=2 / keyint=250 / keyint_min=23 / scenecut=40 / intra_refresh=0 / rc_lookahead=50 / rc=2pass / mbtree=1 / bitrate=11146 / ratetol=1.0 / qcomp=0.60 / qpmin=1 / qpmax=63 / qpstep=4 / cplxblur=20.0 / qblur=0.5 / vbv_maxrate=40000 / vbv_bufsize=40000 / nal_hrd=none / ip_ratio=1.40 / aq=2:0.80
Language : Chinese
Audio #1
ID : 3
Format : DTS
Format/Info : Digital Theater Systems
Codec ID : A_DTS
Duration : 1h 43mn
Bit rate mode : Constant
Bit rate : 1 510 Kbps
Channel(s) : 6 channels
Channel positions : Front: L C R, Side: L R, LFE
Sampling rate : 48.0 KHz
Bit depth : 16 bits
Compression mode : Lossy
Stream size : 1.09 GiB (11%)
Title : CANTONESE
Language : Chinese
Audio #2
ID : 4
Format : AC-3
Format/Info : Audio Coding 3
Mode extension : CM (complete main)
Codec ID : A_AC3
Duration : 1h 43mn
Bit rate mode : Constant
Bit rate : 448 Kbps
Channel(s) : 6 channels
Channel positions : Front: L C R, Side: L R, LFE
Sampling rate : 48.0 KHz
Bit depth : 16 bits
Compression mode : Lossy
Stream size : 333 MiB (3%)
Title : AVO Живов
Language : Russian
Audio #3
ID : 5
Format : AC-3
Format/Info : Audio Coding 3
Mode extension : CM (complete main)
Codec ID : A_AC3
Duration : 1h 43mn
Bit rate mode : Constant
Bit rate : 448 Kbps
Channel(s) : 6 channels
Channel positions : Front: L C R, Side: L R, LFE
Sampling rate : 48.0 KHz
Bit depth : 16 bits
Compression mode : Lossy
Stream size : 333 MiB (3%)
Title : MVO "Cinema Prestige"
Language : Russian
Audio #4
ID : 6
Format : DTS
Format/Info : Digital Theater Systems
Codec ID : A_DTS
Duration : 1h 43mn
Bit rate mode : Constant
Bit rate : 755 Kbps
Channel(s) : 6 channels
Channel positions : Front: L C R, Side: L R, LFE
Sampling rate : 48.0 KHz
Bit depth : 24 bits
Compression mode : Lossy
Stream size : 560 MiB (5%)
Title : MVO "Kravec"
Language : Russian
Text #1
ID : 1
Format : UTF-8
Codec ID : S_TEXT/UTF8
Codec ID/Info : UTF-8 Plain Text
Language : English
Text #2
ID : 2
Format : UTF-8
Codec ID : S_TEXT/UTF8
Codec ID/Info : UTF-8 Plain Text
Language : Russian

Светлое будущее 3: Любовь и смерть в Сайгоне / Ying hung boon sik III: Zik yeung ji gor / 1989

Светлое будущее 3: Любовь и смерть в Сайгоне / Ying hung boon sik III: Zik yeung ji gor
Страна: Гонконг
Производство: Film Workshop Ltd., Golden Princess Film Production Limited
Год выпуска: 1989
Жанр: боевик, военный
Продолжительность: 01:59:03
Режиссер: Цуй Харк
Авторы сценария: Йиу Минг Люн, Фу Хо Таи, Цуй Харк
В ролях: Чоу Юнь-Фат, Тони Люн Ка-фай, Анита Муи, Кьень Ши, Сабуро Токито, Вэй Лун Чэн, Мэгги Хо Йи Чунг, Эндрю Кэм Юэнь Ва
Описание: В третьем фильме за светлое будущее для себя, а не для народа борются два двоюродных брата. Действие начинается во Вьетнаме в конце войны с американцами. В Китае идет культурная революция. В Камбодже война. В эти смутные времена наши герои занимаются преступностью, сея горы трупов под руководством роковой красавицы...

Перевод: Многоголосый | Kravec + Многоголосый | Cinema Prestige + Авторский | Юрий Живов
Субтитры: английские, русские-Качество: BDRip 1080p
Формат: МКV
Видео кодек: AVC
Аудио кодек: DTS | АС3
Видео: 1920x1012 (1.897), 23.976 fps, MPEG-4 AVC ~11.1 Mbps avg, 0.239 bit/pixel
Аудио №1: 48.0 kHz, Digital Theater Systems, 3/2 (L,C,R,l,r) + LFE ch, ~1 510 kbps | CHI
Аудио №2: 48.0 kHz, Digital Theater Systems, 3/2 (L,C,R,l,r) + LFE ch, ~775 kbps | Kravec
Аудио №3: 48.0 kHz, AC3 Dolby Digital, 3/2 (L,C,R,l,r) + LFE ch, ~448 kbps | Cinema Prestige
Аудио №4: 48.0 kHz, AC3 Dolby Digital, 3/2 (L,C,R,l,r) + LFE ch, ~448 kbps | Юрий Живов
Формат субтитров: UTF-8 Plain Text
Дата премьеры (мир): 9 сентября 1989
релиз на DVD: 3 декабря 2009, «Cinema Prestige»
Скриншоты

Media Info

Format : Matroska
Format version : Version 2
File size : 11.9 GiB
Duration : 1h 59mn
Overall bit rate : 14.3 Mbps
Movie name : Светлое будущее 3 / A Better Tomorrow 3 (1989) BDRip 720p by nextDred
Encoded date : UTC 2011-09-17 17:58:58
Writing application : mkvmerge v4.9.1 ('Ich will') сборка от Jul 11 2011 23:53:15
Writing library : libebml v1.2.1 + libmatroska v1.1.1
Video
ID : 1
Format : AVC
Format/Info : Advanced Video Codec
Format profile : High@L4.1
Format settings, CABAC : Yes
Format settings, ReFrames : 4 frames
Codec ID : V_MPEG4/ISO/AVC
Duration : 1h 59mn
Bit rate : 11.1 Mbps
Width : 1 920 pixels
Height : 1 012 pixels
Display aspect ratio : 1.897
Frame rate : 23.976 fps
Color space : YUV
Chroma subsampling : 4:2:0
Bit depth : 8 bits
Scan type : Progressive
Bits/(Pixel*Frame) : 0.239
Stream size : 9.01 GiB (76%)
Title : A.Better.Tomorrow.III.1989
Writing library : x264 core 114 r1924 08d04a4
Encoding settings : cabac=1 / ref=4 / deblock=1:-3:-3 / analyse=0x3:0x113 / me=umh / subme=9 / psy=1 / psy_rd=1.05:0.10 / mixed_ref=1 / me_range=32 / chroma_me=1 / trellis=2 / 8x8dct=1 / cqm=2 / deadzone=21,11 / fast_pskip=0 / chroma_qp_offset=-2 / threads=12 / sliced_threads=0 / nr=0 / decimate=1 / interlaced=0 / constrained_intra=0 / bframes=6 / b_pyramid=2 / b_adapt=2 / b_bias=0 / direct=3 / weightb=1 / open_gop=0 / weightp=2 / keyint=250 / keyint_min=23 / scenecut=40 / intra_refresh=0 / rc_lookahead=50 / rc=2pass / mbtree=1 / bitrate=11121 / ratetol=1.0 / qcomp=0.70 / qpmin=1 / qpmax=63 / qpstep=4 / cplxblur=20.0 / qblur=0.5 / vbv_maxrate=40000 / vbv_bufsize=40000 / nal_hrd=none / ip_ratio=1.40 / aq=2:0.80
Language : Chinese
Audio #1
ID : 2
Format : DTS
Format/Info : Digital Theater Systems
Codec ID : A_DTS
Duration : 1h 59mn
Bit rate mode : Constant
Bit rate : 1 510 Kbps
Channel(s) : 6 channels
Channel positions : Front: L C R, Side: L R, LFE
Sampling rate : 48.0 KHz
Bit depth : 16 bits
Compression mode : Lossy
Stream size : 1.26 GiB (11%)
Title : CANTONESE
Language : Chinese
Audio #2
ID : 4
Format : DTS
Format/Info : Digital Theater Systems
Codec ID : A_DTS
Duration : 1h 59mn
Bit rate mode : Constant
Bit rate : 755 Kbps
Channel(s) : 6 channels
Channel positions : Front: L C R, Side: L R, LFE
Sampling rate : 48.0 KHz
Bit depth : 24 bits
Compression mode : Lossy
Stream size : 642 MiB (5%)
Title : MVO "Kravec"
Language : Russian
Audio #3
ID : 6
Format : AC-3
Format/Info : Audio Coding 3
Mode extension : CM (complete main)
Codec ID : A_AC3
Duration : 1h 59mn
Bit rate mode : Constant
Bit rate : 448 Kbps
Channel(s) : 6 channels
Channel positions : Front: L C R, Side: L R, LFE
Sampling rate : 48.0 KHz
Bit depth : 16 bits
Compression mode : Lossy
Stream size : 381 MiB (3%)
Title : MVO "Cinema Prestige"
Language : Russian
Audio #4
ID : 7
Format : AC-3
Format/Info : Audio Coding 3
Mode extension : CM (complete main)
Codec ID : A_AC3
Duration : 1h 59mn
Bit rate mode : Constant
Bit rate : 448 Kbps
Channel(s) : 6 channels
Channel positions : Front: L C R, Side: L R, LFE
Sampling rate : 48.0 KHz
Bit depth : 16 bits
Compression mode : Lossy
Stream size : 381 MiB (3%)
Title : AVO Живов
Language : Russian
Text #1
ID : 3
Format : UTF-8
Codec ID : S_TEXT/UTF8
Codec ID/Info : UTF-8 Plain Text
Language : English
Text #2
ID : 5
Format : UTF-8
Codec ID : S_TEXT/UTF8
Codec ID/Info : UTF-8 Plain Text
Language : Russian
[Профиль] [ЛС]
Кто просматривает тему:

Форум Тема Автор Размер
Classical (Classical) Чайковский Симфонии № 1-6/Tchaikovsky Symphonies Nos. 1-6 (Евгений Светланов) (Live in Tok - 2002, MP3, 320 kbps Magnat 604 MB
Pop (Pop) Жанна Фриске - Светлая память тебе! (2015) MP3 BOSS 844 MB
Pop (Pop) Светлана Лобода (LOBODA) - 40 Градусов - 2015, MP3, 320 kbps достали все 145 MB
Russian music (other genres) (Шансон) Светлана Питерская - Дискография (8 альбомов) (2001-2011), MP3, 320 kbps Russian Mafia 1.34 GB
Классика зарубежного кино 20000 лье под водой / 20000 Leagues Under the Sea (Ричард Флайшер / Richard Fleischer) [1954, США, Фантастика, фэнтези, драма, приключения, WEB-DLRip] MVO (Светла) Russian Mafia 1.46 GB
Отечественные мультфильмы Брут / Brutus (Светлана Филиппова) [2014, авторская анимация, DVDScreener] TorrentFilm 859 MB
Отечественные мультфильмы Гармонист (Светлана Быченко) [2003, мультфильм рисованный, документальная сказка, WEBRip] TorrentFilm 230 MB
Фильмы (DVD 5/9) До свидания мама (Светлана Проскурина) [2014, Россия, драма, DVD5] R5 Sub Eng + Original Rus TorrentFilm 4.11 GB
Показать сообщения:    

Текущее время: Сегодня 08:49

Часовой пояс: GMT



Вы не можете начинать темы
Вы не можете отвечать на сообщения
Вы не можете редактировать свои сообщения
Вы не можете удалять свои сообщения
Вы не можете голосовать в опросах
Вы не можете прикреплять файлы к сообщениям
Вы не можете скачивать файлы