Светлая сторона Луны / Первая ночь Луны / La prima notte della Luna / The bright side of the Moon (Массимо Гульельми / Massimo Guglielmi) [2010, Италия, Россия, Швейцария, Польша, драма, SATRip] DVO

 
Автор Сообщение

reversefile ®

Пол:

Стаж: 4 года 5 месяцев

Сообщений: 842

Откуда: ReverseFile.org



Награды: Нет

Торрент-статистика

Создавать темы 11-Авг-2014 10:47

[Цитировать]

Светлая сторона Луны / Первая ночь Луны / La prima notte della Luna / The bright side of the Moon Страна: Италия, Россия, Швейцария, Польша
Жанр: драма
Год выпуска: 2010
Продолжительность: 01:54:24
Перевод: Профессиональный (двухголосый закадровый) - на английскую речь.
Cубтитры: нет
Режиссер: Массимо Гульельми / Massimo Guglielmi
В ролях: Лянка Грыу, Филипп Азаров, Ольга Белявская, Бранко Джурич, Сергей Гамов, Джанкарло Джаннини, Игорь Головин, Юрий Ицков, Сергей Красовский, Ольга Онищенко
Описание: 1967 год, Ленинград. Тоня с детства мечтала стать космонавтом, как ее знаменитый дядя — Владимир Комаров. Ее мечта вот-вот должна сбыться, но два неожиданных события меняют ее жизнь: Тоня знакомится с боксером по имени Михаил — молодым человеком со сложным прошлым, и оказывается выгнана из космической программы, после того, как посмела отказать одному из своих начальников.
В одночасье потеряв надежду воплотить мечту своей жизни, Тоня вскоре оказывается еще перед одним важным выбором: ей нужно решить остаться ли в Советском Союзе с Михаилом или уехать с влюбленным в нее американцем Филиппом, готовым предложить ей обеспеченную, но, скорее всего, несчастливую жизнь за рубежом.
Сэмпл: http://multi-up.com/965297
Качество видео: SATRip
Формат видео: AVI
Видео: 704x288 (2.44:1), 25 fps, XviD build 47 ~1504 kbps avg, 0.30 bit/pixel
Аудио: 48 kHz, MPEG Layer 3, 2 ch, ~192.00 kbps avg

MediaInfo

Format : AVI
Format/Info : Audio Video Interleave
File size : 1.36 GiB
Duration : 1h 54mn
Overall bit rate : 1 707 Kbps
Video
ID : 0
Format : MPEG-4 Visual
Format profile : Advanced Simple@L5
Format settings, BVOP : 1
Format settings, QPel : No
Format settings, GMC : No warppoints
Format settings, Matrix : Default (MPEG)
Codec ID : XVID
Codec ID/Hint : XviD
Duration : 1h 54mn
Bit rate : 1 505 Kbps
Width : 704 pixels
Height : 288 pixels
Display aspect ratio : 2.40:1
Frame rate : 25.000 fps
Color space : YUV
Chroma subsampling : 4:2:0
Bit depth : 8 bits
Scan type : Progressive
Compression mode : Lossy
Bits/(Pixel*Frame) : 0.297
Stream size : 1.20 GiB (88%)
Writing library : XviD 1.2.0.dev47 (UTC 2006-11-01)
Audio
ID : 1
Format : MPEG Audio
Format version : Version 1
Format profile : Layer 3
Mode : Joint stereo
Mode extension : MS Stereo
Codec ID : 55
Codec ID/Hint : MP3
Duration : 1h 54mn
Bit rate mode : Constant
Bit rate : 192 Kbps
Channel(s) : 2 channels
Sampling rate : 48.0 KHz
Compression mode : Lossy
Stream size : 157 MiB (11%)
Alignment : Aligned on interleaves
Interleave, duration : 40 ms (1.00 video frame)
Interleave, preload duration : 504 ms
Writing library : LAME3.97
Encoding settings : -m j -V 4 -q 2 -lowpass 18.6 -b 192

Скриншот c названием фильма

Скриншоты


[Профиль] [ЛС]

Создавать темы 06-Авг-2015 23:19 (спустя 11 месяцев 26 дней)

Топик был перенесен из форума Фильмы до 2014 года в форум Фильмы до 2012 года
sergej644
 

Создавать темы 12-Июн-2016 07:54 (спустя 1 год 10 месяцев)

Топик был перенесен из форума Фильмы 2011 года в форум Фильмы 2010 года
Russian Mafia
 
Кто просматривает тему:

Форум Тема Автор Размер
Classical (Classical) Чайковский Симфонии № 1-6/Tchaikovsky Symphonies Nos. 1-6 (Евгений Светланов) (Live in Tok - 2002, MP3, 320 kbps Magnat 604 MB
Pop (Pop) Жанна Фриске - Светлая память тебе! (2015) MP3 BOSS 844 MB
Pop (Pop) Светлана Лобода (LOBODA) - 40 Градусов - 2015, MP3, 320 kbps достали все 145 MB
Russian music (other genres) (Шансон) Светлана Питерская - Дискография (8 альбомов) (2001-2011), MP3, 320 kbps Russian Mafia 1.34 GB
Классика зарубежного кино 20000 лье под водой / 20000 Leagues Under the Sea (Ричард Флайшер / Richard Fleischer) [1954, США, Фантастика, фэнтези, драма, приключения, WEB-DLRip] MVO (Светла) Russian Mafia 1.46 GB
Отечественные мультфильмы Брут / Brutus (Светлана Филиппова) [2014, авторская анимация, DVDScreener] TorrentFilm 859 MB
Отечественные мультфильмы Гармонист (Светлана Быченко) [2003, мультфильм рисованный, документальная сказка, WEBRip] TorrentFilm 230 MB
Фильмы (DVD 5/9) До свидания мама (Светлана Проскурина) [2014, Россия, драма, DVD5] R5 Sub Eng + Original Rus TorrentFilm 4.11 GB
Показать сообщения:    

Текущее время: Сегодня 12:33

Часовой пояс: GMT



Вы не можете начинать темы
Вы не можете отвечать на сообщения
Вы не можете редактировать свои сообщения
Вы не можете удалять свои сообщения
Вы не можете голосовать в опросах
Вы не можете прикреплять файлы к сообщениям
Вы не можете скачивать файлы