Сверчок (Александр Полушкин) [1982 г., рисованный мультфильм, DVB]

 
Автор Сообщение

TorrentFilm ®

Пол:

Стаж: 2 года

Сообщений: 7741



Награды: Нет

Торрент-статистика

Создавать темы 03-Янв-2016 00:04

[Цитировать]

Сверчок
Жанр: рисованный мультфильм
Год выпуска: 1982
Продолжительность: 00:09:58
Режиссёр: Александр Полушкин)
Описание: мультфильм о том, как жил в лесу один жадный медвежонок. Дал ему как-то пожилой медведь, по имени Спиридон, бочонок мёда, сказав, чтобы он поделился с остальными. Однако Ваня медвежонок-жадина решил съесть весь его до капли сам. Другие зверята увидели это и решили проучить жадину …
Доп. информация: по мотивам сказки Братьев Бондаренко (Владимир и Вениамин Бондаренко)

Релиз группы:
Трансляция спутникового канала: "Карусель"
Качество видео: DVB
Формат видео: MPEG-PS
Видео: MPEG2 Video, 720x576, 25 fps, 3400 kbps
Аудио: MPEG Audio, 2 сh, 48 kHz, 192 kbps

MediaInfo

General
Complete name : D:\Сверчок. (1982)_DVB by SLuMeP.mpg
Format : MPEG-PS
File size : 261 MiB
Duration : 9mn 58s
Overall bit rate mode : Variable
Overall bit rate : 3 653 Kbps
Video #224
ID : 224 (0xE0)
Format : MPEG Video
Format version : Version 2
Format profile : Main@Main
Format settings, BVOP : Yes
Format settings, Matrix : Custom
Format settings, GOP : M=3, N=12
Duration : 9mn 58s
Bit rate mode : Variable
Bit rate : 3 388 Kbps
Maximum bit rate : 5 000 Kbps
Width : 720 pixels
Height : 576 pixels
Display aspect ratio : 4:3
Frame rate : 25.000 fps
Standard : PAL
Color space : YUV
Chroma subsampling : 4:2:0
Bit depth : 8 bits
Scan type : Interlaced
Scan order : Top Field First
Compression mode : Lossy
Bits/(Pixel*Frame) : 0.327
Stream size : 242 MiB (93%)
Audio #192
ID : 192 (0xC0)
Format : MPEG Audio
Format version : Version 1
Format profile : Layer 2
Duration : 9mn 58s
Bit rate mode : Constant
Bit rate : 192 Kbps
Channel(s) : 2 channels
Sampling rate : 48.0 KHz
Compression mode : Lossy
Stream size : 13.7 MiB (5%)

Скриншоты

[Профиль] [ЛС]
Кто просматривает тему:

Показать сообщения:    

Текущее время: Сегодня 20:59

Часовой пояс: GMT



Вы не можете начинать темы
Вы не можете отвечать на сообщения
Вы не можете редактировать свои сообщения
Вы не можете удалять свои сообщения
Вы не можете голосовать в опросах
Вы не можете прикреплять файлы к сообщениям
Вы не можете скачивать файлы