Сверхъестественное / Supernatural (Сезон 8-10, Серии 1-69 из 69) [2012-2015, Драма/Фэнтези/Ужасы/Детектив/Триллер, WEBDLRip-AVC] [720р] [MVO] [LostFilm+ Subs Rus]

 
Автор Сообщение

Враг Нароода ®

Стаж: 1 год 8 месяцев

Сообщений: 112



Награды: 2 (Подробнее)

За внесенный вклад в развитие сайта (Количество: 1) Mega Seeder 1 (Количество: 1)
Торрент-статистика

Создавать темы 13-Апр-2015 07:02

[Цитировать]

-- --Сверхъестественное / Supernatural Сезон 8-10, Серии 1-69 из 69-- --Год выпуска: 2012-2015
Выпущено: США ,Kripke Enterprises, Warner Bros. Pictures Co., Warner Bros. Television, Wonderland Sound and Vision
Жанр: Драма/Фэнтези/Ужасы/Детектив/Триллер
Продолжительность: 00:44:00
Сезон:8-10
Серия: 1-69
Количество серий в сезоне: 69
Озвучка:Профессиональная многоголосая закадровая(LostFilm)
Субтитры 8-9 Сезон: Русские Хардсаб от --Официальный сайт сериала
Русскоязычный фан-сайт
--Режиссер: Ким Мэннерс, Филип Сгриккиа, Роберт Сингер--В ролях: Джаред Падалеки, Дженсен Эклс, Джим Бивер, Джеффри Дин Морган, Миша Коллинз, Женевьев Кортезе, Кэти Кэссиди, Лорен Коэн, Саманта Феррис, Никки Эйкокс и др.-- Сериал рассказывает о приключениях братьев Сэма и Дина Винчестеров, которые путешествуют по Соединённым Штатам на чёрном автомобиле Chevrolet Impala 1967 года, расследуют паранормальные явления, многие из которых основаны на американских городских легендах и фольклоре, и сражаются с порождениями зла, такими как демоны и призраки.-- --Качество : WEB-DLRip-AVC 720p
Формат: MPEG-4
Видео кодек: H264
Видео: 3115Кбит/сек,1280х720(16.9),в 25.000кадр/сек,AVC(Baseline@L3.1)(1Ref Frames)
Аудио кодек: AAC
Аудио Russian Dolby Digital 5.1:456-228Кбит/сек,44.1КГц,6каналов,AAC,(Version4)(LC)-- --

Доп. информация:

Звуковая дорожка сделана путем наложения чистого голоса озвучивателей на центральный канал оригинальной дорожки. Качество идентично звуковой дорожке.
--

Список эпизодов сезонов

8-СЕЗОН
1. Поговорим о Кевине (We Need to Talk About Kevin)
2. Вам слово, мамочка! (What's Up, Tiger Mommy?)
3. Сердечные муки (Heartache)
4. Укушенный (Bitten)
5. Брат по крови (Blood Brother)
6. Утоли мои печали (Southern Comfort)
7. Кусочек Кевина (A Little Slice of Kevin)
8. Отважный охотник (Hunteri Heroici)
9. Гражданин Клык (Citizen Fang)
10. На перепутье (Torn and Frayed)
11 Ролевая игра и настоящая девчонка (LARP and the Real Girl)
12 А время летит (As Time Goes By)
13 Все ненавидят Гитлера (Everybody Hates Hitler)
14 Метод проб и ошибок (Trial and Error)
15 Человек собаке друг... и даже больше (Man's Best Friend with Benefits)
16 Вспоминая Титанов (Remember the Titans)
17 Прощай, странник (Goodbye Stranger)
18 Братаны и ботаны (Freaks and Geeks)
19 Перевозчик (Taxi Driver)
20 Игромания (Pac-Man Fever)
21 Великий беглец (The Great Escapist)
22 Дела минувшие (Clip Show)
23 Жертва (Sacrifice)

9-СЕЗОН
01 Думаю, я здесь приживусь (I Think I'm Gonna Like It Here)
02 А нам все равно (Devil May Care)
03 Я не ангел (I'm No Angel)
04 В гостях у сказки (Slumber Party)
05 Собачий полдень Дина (Dog Dean Afternoon)
06 Небеса не могут ждать (Heaven Can't Wait) PROPER
07 Плохие мальчишки (Bad Boys)
08 Между молотом и наковальней (Rock and a Hard Place)
09 Святой террор (Holy Terror)
10 Большая прогулка (Road Trip)
11 Старший брат (First Born)
12 Острые клыки (Sharp Teeth)
13 Очищение (The Purge)
14 Пленники (Captives)
15 Слендер (Thinman)
16 Бегущие по лезвию (Blade Runners)
17 Лекарство от всех проблем (Mother's Little Helper)
18 Сказки дядюшки Метатрона (Meta Fiction)
19 Алекс Энни Алексис Энн (Alex Annie Alexis Ann)
20 Кровные узы (Bloodlines)
21 Король проклятых (King of the Damned)
22 Лестница в небо (Stairway to Heaven)
23 Ты веришь в чудеса? (Do You Believe in Miracles?)

10-СЕЗОН
01 Черное (Black)
02 Рейхенбах (Reichenbach)
03 Исцелённая душа (Soul Survivor)
04 Бумажная луна (Paper Moon)
05 Фанфики (Fan Fiction)
06 Спросите у Дживса (Ask Jeeves)
07 Ох уж эти девчонки (Girls, Girls, Girls)
08 Полиция Хиббинга спешит на помощь (Hibbing 911)
09 Что осталось после нас (The Things We Left Behind)
10 Охотничьи игры (The Hunter Games)
11 В гостях хорошо, а дома лучше (There's No Place Like Home)
12 Заметка про мальчика (About a Boy)
13 Остановись и гори (Halt & Catch Fire)
14 Песнь палача (The Executioner's Song)
15 Тяжкое бремя (The Things They Carried)
16 В чёрном цвете (Paint It Black)
17 Свой среди чужих (Inside man)
18 Книга проклятых (Book of the Damned)
19 Проект "Вертер" (The Werther Project)
20 Сердце ангела (Angel Heart)
21 Темная династия (Dark Dynasty)
22 Пленник (The Prisoner)
23 Сторож брату своему (Brother's Keeper)
--

MediaInfo 8-СЕЗОН

Общее
Полное имя : D:\Д Е Т Е К Т И В\Supernatural_S08_rus[LostFilm.TV]_DD5.1_x264_Nikolai.Baranov_WEB-DLRip-AVC_(720p\Supernatural_2012_S08E01_rus[LostFilm.TV]_DD5.1_x264_Nikolai.Baranov_WEB-DLRip-AVC_(720p).mp4
Формат : MPEG-4
Профиль формата : Base Media
Идентификатор кодека : isom
Размер файла : 1,07 Гбайт
Продолжительность : 42 м.
Режим общего битрейта : Переменный
Общий поток : 3575 Кбит/сек
Дата кодирования : UTC 2012-11-25 15:58:23
Дата пометки : UTC 2012-11-25 15:58:23
Программа кодирования : Lavf51.12.1
Видео
Идентификатор : 1
Формат : AVC
Формат/Информация : Advanced Video Codec
Профиль формата : Baseline@L3.1
Параметр CABAC формата : Нет
Параметр ReFrames формата : 1 кадр
Параметр GOP формата : M=1, N=12
Идентификатор кодека : avc1
Идентификатор кодека/Информация : Advanced Video Coding
Продолжительность : 42 м.
Вид битрейта : Переменный
Битрейт : 3115 Кбит/сек
Максимальный битрейт : 4500 Кбит/сек
Ширина : 1280 пикселей
Высота : 720 пикселей
Соотношение сторон : 16:9
Режим частоты кадров : Постоянный
Частота кадров : 25,000 кадров/сек
Частота кадров в оригинале : 24,000 кадра/сек
Цветовое пространство : YUV
Субдискретизация насыщенности : 4:2:0
Битовая глубина : 8 бит
Тип развёртки : Прогрессивная
Бит/(Пиксели*Кадры) : 0.135
Размер потока : 952 Мбайт (87%)
Дата кодирования : UTC 2012-11-25 15:58:23
Дата пометки : UTC 2012-11-25 15:58:23
Аудио
Идентификатор : 2
Формат : AAC
Формат/Информация : Advanced Audio Codec
Профиль формата : LC
Идентификатор кодека : 40
Продолжительность : 42 м.
Вид битрейта : Переменный
Битрейт : 456 Кбит/сек
Каналы : 6 каналов
Расположение каналов : Front: L C R, Side: L R, LFE
Частота : 44,1 КГц
Метод сжатия : С потерями
Размер потока : 139 Мбайт (13%)
Дата кодирования : UTC 2012-11-25 15:58:23
--

MediaInfo 9-СЕЗОН

General
Полное имя : D:\Д Е Т Е К Т И В\Supernatural_S08_rus[LostFilm.TV]_DD5.1_x264_Nikolai.Baranov_WEB-DLRip-AVC_(720p\Supernatural_2013_S09E01_rus[LostFilm.TV]_DD5.1_x264_Nikolai.Baranov_WEB-DLRip-AVC_(720p).mp4
Формат : MPEG-4
Профиль формата : Base Media
Идентификатор кодека : isom
Размер файла : 1 019 MiB
Продолжительность : 42mn 33s
Режим общего битрейта : Variable
Общий поток : 3 347 Kbps
Дата кодирования : UTC 2013-10-15 14:15:08
Дата пометки : UTC 2013-10-15 14:15:08
Программа кодирования : Lavf51.12.1
Video
Идентификатор : 1
Формат : AVC
Формат/Информация : Advanced Video Codec
Профиль формата : Baseline@L3.1
Параметр CABAC формата : No
Параметр ReFrames формата : 1 frame
Параметр GOP формата : M=1, N=12
Идентификатор кодека : avc1
Идентификатор кодека/Информация : Advanced Video Coding
Продолжительность : 42mn 32s
Вид битрейта : Variable
Битрейт : 3 114 Kbps
Максимальный битрейт : 4 500 Kbps
Ширина : 1 280 pixels
Высота : 720 pixels
Соотношение сторон : 16:9
Режим частоты кадров : Constant
Частота кадров : 25.000 fps
Частота кадров в оригинале : 24.000 fps
Цветовое пространство : YUV
Субдискретизация насыщенности : 4:2:0
Битовая глубина : 8 bits
Тип развёртки : Progressive
Бит/(Пиксели*Кадры) : 0.135
Размер потока : 948 MiB (93%)
Дата кодирования : UTC 2013-10-15 14:15:08
Дата пометки : UTC 2013-10-15 14:15:08
Audio
Идентификатор : 2
Формат : AAC
Формат/Информация : Advanced Audio Codec
Профиль формата : LC
Идентификатор кодека : 40
Продолжительность : 42mn 33s
Вид битрейта : Variable
Битрейт : 228 Kbps
Каналы : 6 channels
Расположение каналов : Front: L C R, Side: L R, LFE
Частота : 44.1 KHz
Метод сжатия : Lossy
Размер потока : 69.5 MiB (7%)
Дата кодирования : UTC 2013-10-15 14:15:08
Дата пометки : UTC 2013-10-15 14:15:08
--

MediaInfo 10-СЕЗОН

General
Полное имя : D:\Д Е Т Е К Т И В\SUPERNATURAL_S08_-_S10_rus[LostFilm.TV]_DD5.1_x264_Nikolai.Baranov_WEB-DLRip-AVC_(720p\S10\1\Supernatural_2014_S10E01_rus[LostFilm.TV]_x264_Nikolai.Baranov_WEB-DLRip-AVC_(720p).mp4
Формат : MPEG-4
Профиль формата : Base Media
Идентификатор кодека : isom
Размер файла : 1.17 GiB
Продолжительность : 42mn 22s
Режим общего битрейта : Variable
Общий поток : 3 941 Kbps
Дата кодирования : UTC 2014-10-11 21:59:39
Дата пометки : UTC 2014-10-11 21:59:39
Программа кодирования : Lavf51.12.1
Video
Идентификатор : 1
Формат : AVC
Формат/Информация : Advanced Video Codec
Профиль формата : Baseline@L3.1
Параметр CABAC формата : No
Параметр ReFrames формата : 1 frame
Параметр GOP формата : M=1, N=12
Идентификатор кодека : avc1
Идентификатор кодека/Информация : Advanced Video Coding
Продолжительность : 42mn 22s
Вид битрейта : Variable
Битрейт : 3 631 Kbps
Максимальный битрейт : 5 250 Kbps
Ширина : 1 280 pixels
Высота : 720 pixels
Соотношение сторон : 16:9
Режим частоты кадров : Constant
Частота кадров : 25.000 fps
Частота кадров в оригинале : 24.000 fps
Цветовое пространство : YUV
Субдискретизация насыщенности : 4:2:0
Битовая глубина : 8 bits
Тип развёртки : Progressive
Бит/(Пиксели*Кадры) : 0.158
Размер потока : 1.07 GiB (92%)
Дата кодирования : UTC 2014-10-11 21:59:39
Дата пометки : UTC 2014-10-11 21:59:39
Audio
Идентификатор : 2
Формат : AAC
Формат/Информация : Advanced Audio Codec
Профиль формата : LC
Идентификатор кодека : 40
Продолжительность : 42mn 22s
Вид битрейта : Variable
Битрейт : 305 Kbps
Каналы : 2 channels
Channel(s)_Original : 6 channels
Расположение каналов : Front: L C R, Side: L R, LFE
Частота : 48.0 KHz
Метод сжатия : Lossy
Размер потока : 92.5 MiB (8%)
Дата кодирования : UTC 2014-10-11 21:59:39
Дата пометки : UTC 2014-10-11 21:59:39
--

Скриншоты8-СЕЗОН

--

Скриншоты9-СЕЗОН


--

Скриншоты10-СЕЗОН

-- 8-СЕЗОН-- 9-СЕЗОН-- 10-СЕЗОН--

Как закачать отдельный файл

1. Открыть торрент
2. Снять галки с тех файлов торрента, которые мы не хотим закачивать. Оставляем только на нужных нам файлах (файле).
3. Нажать О.К.
В клиенте utorrent
Инструкция
1) Открыть торрент

2) Снять галки с тех файлов торрента, которые мы не хотим закачивать:
* либо вручную, снимая с каждого файла галку( скрин №1)
* либо, нажав кнопку "Снять метки (Select None)", сняв сразу со всех файлов(скрин №2)
№1

№2

Оставляем только на нужных нам файлах (файле).

3)Нажать О.К
-- -- --Внимание!!! 25.05. 2015. РАЗДАЧА ОБНОВЛЕНА.ФИНАЛ СЕЗОНА.ОБНОВИТЕ ТОРЕНТ ФАЙЛ.ПРИЯТНОГО ПРОСМОТРА . --Релиз от: Nikolai.Baranov -- -- -- --
[Профиль] [ЛС]
Показать сообщения:    

Текущее время: Сегодня 00:14

Часовой пояс: GMT



Вы не можете начинать темы
Вы не можете отвечать на сообщения
Вы не можете редактировать свои сообщения
Вы не можете удалять свои сообщения
Вы не можете голосовать в опросах
Вы не можете прикреплять файлы к сообщениям
Вы не можете скачивать файлы