Сверхъестественное / Supernatural [S02] (2006) BDRip-AVC от R.G. HD-Films | 60 fps

 
Автор Сообщение

достали все ®

Пол:

Стаж: 1 год 8 месяцев

Сообщений: 6581



Награды: 12 (Подробнее)

Mega Releaser 2 (Количество: 1) Mega Seeder 1 (Количество: 1) Top Releaser 2 (Количество: 1)
Торрент-статистика

Создавать темы 15-Ноя-2015 08:45

[Цитировать]

-Название: Сверхъестественное
Оригинальное название: Supernatural
Год выпуска: 2006
Страна: США
Жанр: ужасы, фэнтези, триллер, драма, детектив
Продолжительность: ~ 00:42:11
Перевод: Дубляж (Рен-ТВ), MVO (NovaFilm), Оригинальный
Субтитры: русские (Полные), английские (Полные)-В ролях: Джаред Падалеки (Sam Winchester), Дженсен Эклс (Dean Winchester), Джим Бивер (Bobby Singer), Миша Коллинз (Castiel), Марк Шеппард (Crowley), Марк Пеллегрино (Lucifer), Женевьев Падалеки (Ruby), Кэти Кэссиди (Ruby), Джеймс Патрик Стюарт (Dick Roman), Саманта Феррис (Ellen Harvelle), Алона Тал (Jo Harvelle), Осрик Чау (Kevin Tran)-Описание:
Сериал рассказывает о приключениях братьев Сэма и Дина Винчестеров, которые путешествуют по Соединённым Штатам на чёрном автомобиле Chevrolet Impala 1967 года, расследуют паранормальные явления, многие из которых основаны на американских городских легендах и фольклоре, и сражаются с порождениями зла, такими как демоны и призраки.-Рейтинг:
-Качество: BDRip-AVC 60fps
Формат: MKV
Видео: AVC, 1024x576 (16:9), 5300 kbps, 59,940 fps, 0,150 bpp
Аудио №1: русский / AC3 / 2.0 / 48 kHz / 192 kbps / 16 bit
Аудио №2: русский / AC3 / 5.1 / 48 kHz / 384 kbps / 16 bit
Аудио №3: английский / AC3 / 5.1 / 48 kHz / 640 kbps / 16 bit- -

Список серий

01 - Пока Я Умирал
02 - Все Любят Клоунов
03 - Жажда Крови
04 - Мертвые - детям не игрушки
05 - Саймон говорит
06 - Выхода Нет
07 - Обычные Подозреваемые
08 - Блюз о Перекрёстке
09 - Кроатон
10 - Травля
11 - Игрушки
12 - Ночной Оборотень
13 - Небеса обетованные
14 - Рожденный под дурным знаком
15 - Небывальщина
16 - Смерть на дороге
17 - Сердце
18 - Голливудский Вавилон
19 - Фольсомский тюремный блюз
20 - Несбыточные мечты и сбывшиеся желания
21 - ...И преисподняя раскрыла пасть свою. Часть I
22 - ...И преисподняя раскрыла пасть свою. Часть II

ОтчетМедиаИнфо

General
Unique ID : 179080658507850987245820151577445650186 (0x86B9AE260C9BBF22BD6C2C5CBB33CF0A)
Format : Matroska
Format version : Version 4 / Version 2
File size : 1.92 GiB
Duration : 42mn 11s
Overall bit rate : 6 517 Kbps
Movie name : Tiberiumsun69
Encoded date : UTC 2015-10-22 10:06:08
Writing application : mkvmerge v8.3.0 ('Over the Horizon') 64bit
Writing library : libebml v1.3.1 + libmatroska v1.4.2
Attachment : Yes
Video
ID : 1
Format : AVC
Format/Info : Advanced Video Codec
Format profile : High@L4.1
Format settings, CABAC : Yes
Format settings, ReFrames : 4 frames
Codec ID : V_MPEG4/ISO/AVC
Duration : 42mn 11s
Bit rate : 5 300 Kbps
Width : 1 024 pixels
Height : 576 pixels
Display aspect ratio : 16:9
Frame rate : 59.940 fps
Color space : YUV
Chroma subsampling : 4:2:0
Bit depth : 8 bits
Scan type : Progressive
Bits/(Pixel*Frame) : 0.150
Stream size : 1.52 GiB (79%)
Title : Tiberiumsun69
Writing library : x264 core 146 r2538 121396c
Encoding settings : cabac=1 / ref=3 / deblock=1:0:0 / analyse=0x3:0x113 / me=umh / subme=9 / psy=1 / psy_rd=1.00:0.10 / mixed_ref=1 / me_range=32 / chroma_me=1 / trellis=2 / 8x8dct=1 / cqm=0 / deadzone=21,11 / fast_pskip=0 / chroma_qp_offset=-3 / threads=12 / lookahead_threads=3 / sliced_threads=0 / nr=0 / decimate=1 / interlaced=0 / bluray_compat=0 / constrained_intra=0 / bframes=16 / b_pyramid=2 / b_adapt=2 / b_bias=0 / direct=3 / weightb=1 / open_gop=0 / weightp=2 / keyint=600 / keyint_min=59 / scenecut=40 / intra_refresh=0 / rc_lookahead=40 / rc=2pass / mbtree=0 / bitrate=5300 / ratetol=1.0 / qcomp=0.60 / qpmin=0 / qpmax=69 / qpstep=4 / cplxblur=20.0 / qblur=0.5 / vbv_maxrate=14000 / vbv_bufsize=14000 / nal_hrd=none / filler=0 / ip_ratio=1.40 / pb_ratio=1.30 / aq=1:1.00
Language : English
Default : Yes
Forced : No
Audio #1
ID : 2
Format : AC-3
Format/Info : Audio Coding 3
Mode extension : CM (complete main)
Codec ID : A_AC3
Duration : 42mn 11s
Bit rate mode : Constant
Bit rate : 192 Kbps
Channel(s) : 2 channels
Channel positions : Front: L R
Sampling rate : 48.0 KHz
Bit depth : 16 bits
Compression mode : Lossy
Stream size : 57.9 MiB (3%)
Title : Дубляж Рен-ТВ
Language : Russian
Default : Yes
Forced : No
Audio #2
ID : 3
Format : AC-3
Format/Info : Audio Coding 3
Mode extension : CM (complete main)
Codec ID : A_AC3
Duration : 42mn 11s
Bit rate mode : Constant
Bit rate : 384 Kbps
Channel(s) : 6 channels
Channel positions : Front: L C R, Side: L R, LFE
Sampling rate : 48.0 KHz
Bit depth : 16 bits
Compression mode : Lossy
Stream size : 116 MiB (6%)
Title : Многоголосый, закадровый NovaFilm
Language : Russian
Default : No
Forced : No
Audio #3
ID : 4
Format : AC-3
Format/Info : Audio Coding 3
Mode extension : CM (complete main)
Codec ID : A_AC3
Duration : 42mn 11s
Bit rate mode : Constant
Bit rate : 640 Kbps
Channel(s) : 6 channels
Channel positions : Front: L C R, Side: L R, LFE
Sampling rate : 48.0 KHz
Bit depth : 16 bits
Compression mode : Lossy
Stream size : 193 MiB (10%)
Title : Оригинал
Language : English
Default : No
Forced : No
Text #1
ID : 5
Format : UTF-8
Codec ID : S_TEXT/UTF8
Codec ID/Info : UTF-8 Plain Text
Title : Полные
Language : Russian
Default : No
Forced : No
Text #2
ID : 6
Format : UTF-8
Codec ID : S_TEXT/UTF8
Codec ID/Info : UTF-8 Plain Text
Title : Полные
Language : English
Default : No
Forced : No

Скриншоты

Просьба к переливающим на другие сайты, в оформлении указывайте пожалуйста авторство группы
[Профиль] [ЛС]
Показать сообщения:    

Текущее время: Сегодня 12:14

Часовой пояс: GMT



Вы не можете начинать темы
Вы не можете отвечать на сообщения
Вы не можете редактировать свои сообщения
Вы не можете удалять свои сообщения
Вы не можете голосовать в опросах
Вы не можете прикреплять файлы к сообщениям
Вы не можете скачивать файлы