Сверхновая / Supernova (2000) BDRip 1080p от NovaLan

 
Автор Сообщение

sergej644 ®

Пол:

Стаж: 4 года 11 месяцев

Сообщений: 6038

Откуда: Soviet Union



Награды: Нет

Торрент-статистика

Создавать темы 26-Фев-2015 20:55

[Цитировать]

Название: Сверхновая
Оригинальное название: Supernova
Год выхода: 2000
Жанр: Ужасы, фантастика, триллер
Режиссер: Уолтер Хилл, Френсис Форд Коппола, Джек Шолдер
В ролях: Джеймс Спэйдер, Анджела Бассетт, Роберт Форстер, Лу Даймонд Филлипс, Питер Фачинелли, Робин Танни, Уилсон Крус, Эдди Райс мл., Нокс Уайт, Керриган Махан, Ванесса Маршалл
О фильме:
Спасательный звездолет «Найтингейл» в одиночестве несет свое бессменное дежурство, готовый в любой момент прийти на помощь терпящим бедствие в самых труднодостижимых глубинах космоса. Когда отчаянный зов о помощи пронизывает пустоту, спасатели отвечают на него смертельно рискованным гиперпространственным прыжком в неизвестность.
Попавший в гравитационное поле умирающей звезды, корабль принимает на борт космический челнок с чудом выжившим астронавтом и странным артефактом внеземного происхождения. Теперь команде предстоит не только проникнуть в пугающую тайну артефакта, но и вырваться из гравитационного плена прежде, чем взрыв сверхновой звезды расщепит их на элементарные частицы вместе со всей окружающей Галактикой.

Страна: США, Швейцария, Hammerhead Productions
Продолжительность: 01:30:39
Озвучено: Профессиональный многоголосый / Профессиональный многоголосый / Авторский одноголосый (Фёдоров)
Кодек: H.264
Качество: BDRip 1080p
Видео: MPEG-4 AVC, 9901 Кбит/с, 1920x816, 23.976 кадр/с
Перевод: Русский (AC3, 6 ch, 384 Кбит/с), (AC3, 2 ch, 192 Кбит/с), английский (DTS, 6 ch, 1510 Кбит/с)
Субтитры: Английские

Инфо-файл

Полное имя : F:Раздачи_FSupernova.2000.x264.BDRip.1080p.NovaLan.mkv
Формат : Matroska
Версия формата : Version 4 / Version 2
Размер файла : 7,83 Гбайт
Продолжительность : 1 ч. 30 м.
Общий поток : 12,4 Мбит/сек
Название фильма : Supernova 2000 - NovaLan
Дата кодирования : UTC 2015-02-16 10:37:28
Программа кодирования : mkvmerge v7.6.0 ('Garden of Dreams') 64bit built on Feb 8 2015 13:04:34
Библиотека кодирования : libebml v1.3.1 + libmatroska v1.4.2
DURATION : 01:22:12.099000000
NUMBER_OF_FRAMES : 865
NUMBER_OF_BYTES : 33570
_STATISTICS_WRITING_APP : mkvmerge v7.6.0 ('Garden of Dreams') 64bit built on Feb 8 2015 13:04:34
_STATISTICS_WRITING_DATE_UTC : 2015-02-16 10:37:28
_STATISTICS_TAGS : BPS DURATION NUMBER_OF_FRAMES NUMBER_OF_BYTES
Видео
Идентификатор : 1
Формат : AVC
Формат/Информация : Advanced Video Codec
Профиль формата : High@L4.1
Параметр CABAC формата : Да
Параметр ReFrames формата : 4 кадра
Идентификатор кодека : V_MPEG4/ISO/AVC
Продолжительность : 1 ч. 30 м.
Битрейт : 9901 Кбит/сек
Ширина : 1920 пикселей
Высота : 816 пикселей
Соотношение сторон : 2,35:1
Частота кадров : 23,976 кадра/сек
Цветовое пространство : YUV
Субдискретизация насыщенности : 4:2:0
Битовая глубина : 8 бит
Тип развёртки : Прогрессивная
Бит/(Пиксели*Кадры) : 0.264
Размер потока : 6,11 Гбайт (78%)
Заголовок : Sergei7721
Библиотека кодирования : x264 core 133 r2334 a3ac64b
Настройки программы : cabac=1 / ref=4 / deblock=1:-1:-1 / analyse=0x3:0x113 / me=umh / subme=11 / psy=1 / psy_rd=1.00:0.20 / mixed_ref=1 / me_range=24 / chroma_me=1 / trellis=2 / 8x8dct=1 / cqm=0 / deadzone=21,11 / fast_pskip=0 / chroma_qp_offset=-3 / threads=12 / lookahead_threads=1 / sliced_threads=0 / nr=0 / decimate=0 / interlaced=0 / bluray_compat=0 / constrained_intra=0 / bframes=6 / b_pyramid=2 / b_adapt=2 / b_bias=0 / direct=3 / weightb=1 / open_gop=0 / weightp=2 / keyint=240 / keyint_min=23 / scenecut=40 / intra_refresh=0 / rc_lookahead=40 / rc=2pass / mbtree=0 / bitrate=9901 / ratetol=1.0 / qcomp=0.60 / qpmin=0 / qpmax=69 / qpstep=4 / cplxblur=20.0 / qblur=0.5 / vbv_maxrate=50000 / vbv_bufsize=62500 / nal_hrd=none / ip_ratio=1.40 / pb_ratio=1.30 / aq=1:1.00
Default : Да
Forced : Нет
DURATION : 01:30:39.476000000
NUMBER_OF_FRAMES : 130417
NUMBER_OF_BYTES : 6726680268
_STATISTICS_WRITING_APP : mkvmerge v7.6.0 ('Garden of Dreams') 64bit built on Feb 8 2015 13:04:34
_STATISTICS_WRITING_DATE_UTC : 2015-02-16 10:37:28
_STATISTICS_TAGS : BPS DURATION NUMBER_OF_FRAMES NUMBER_OF_BYTES
Аудио #1
Идентификатор : 2
Формат : AC-3
Формат/Информация : Audio Coding 3
Расширение режима : CM (complete main)
Параметр Endianness формата : Big
Идентификатор кодека : A_AC3
Продолжительность : 1 ч. 30 м.
Вид битрейта : Постоянный
Битрейт : 384 Кбит/сек
Каналы : 6 каналов
Расположение каналов : Front: L C R, Side: L R, LFE
Частота : 48,0 КГц
Битовая глубина : 16 бит
Метод сжатия : С потерями
Размер потока : 249 Мбайт (3%)
Язык : Russian
Default : Да
Forced : Нет
Аудио #2
Идентификатор : 3
Формат : AC-3
Формат/Информация : Audio Coding 3
Расширение режима : CM (complete main)
Параметр Endianness формата : Big
Идентификатор кодека : A_AC3
Продолжительность : 1 ч. 30 м.
Вид битрейта : Постоянный
Битрейт : 384 Кбит/сек
Каналы : 6 каналов
Расположение каналов : Front: L C R, Side: L R, LFE
Частота : 48,0 КГц
Битовая глубина : 16 бит
Метод сжатия : С потерями
Размер потока : 249 Мбайт (3%)
Язык : Russian
Default : Нет
Forced : Нет
Аудио #3
Идентификатор : 4
Формат : AC-3
Формат/Информация : Audio Coding 3
Расширение режима : CM (complete main)
Параметр Endianness формата : Big
Идентификатор кодека : A_AC3
Продолжительность : 1 ч. 30 м.
Вид битрейта : Постоянный
Битрейт : 192 Кбит/сек
Каналы : 2 канала
Расположение каналов : Front: L R
Частота : 48,0 КГц
Битовая глубина : 16 бит
Метод сжатия : С потерями
Размер потока : 125 Мбайт (2%)
Язык : Russian
Default : Нет
Forced : Нет
Аудио #4
Идентификатор : 5
Формат : DTS
Формат/Информация : Digital Theater Systems
Идентификатор кодека : A_DTS
Продолжительность : 1 ч. 30 м.
Вид битрейта : Постоянный
Битрейт : 1510 Кбит/сек
Каналы : 6 каналов
Расположение каналов : Front: L C R, Side: L R, LFE
Частота : 48,0 КГц
Битовая глубина : 24 бит
Метод сжатия : С потерями
Размер потока : 979 Мбайт (12%)
Язык : English
Default : Нет
Forced : Нет
Текст
Идентификатор : 6
Формат : UTF-8
Идентификатор кодека : S_TEXT/UTF8
Идентификатор кодека/Информация : UTF-8 Plain Text
Язык : English
Default : Нет
Forced : Нет
Меню
00:00:00.000 : en:00:00:00.000
00:07:38.624 : en:00:07:38.624
00:14:21.277 : en:00:14:21.277
00:22:16.877 : en:00:22:16.877
00:27:39.616 : en:00:27:39.616
00:34:58.471 : en:00:34:58.471
00:42:58.033 : en:00:42:58.033
00:48:57.684 : en:00:48:57.684
00:55:01.423 : en:00:55:01.423
01:01:43.991 : en:01:01:43.991
01:12:22.254 : en:01:12:22.254
01:18:16.024 : en:01:18:16.024
01:23:27.201 : en:01:23:27.201
Релиз группа NovaLan
Автор релиза Sergei7721


[Профиль] [ЛС]
Показать сообщения:    

Текущее время: Сегодня 06:20

Часовой пояс: GMT



Вы не можете начинать темы
Вы не можете отвечать на сообщения
Вы не можете редактировать свои сообщения
Вы не можете удалять свои сообщения
Вы не можете голосовать в опросах
Вы не можете прикреплять файлы к сообщениям
Вы не можете скачивать файлы