Сват / Once I Was / The Matchmaker / Paam haiti (Ави Нешер / Avi Nesher) [2010, Израиль, драма, DVDRip] MVO

 
Автор Сообщение

TorrentFilm ®

Пол:

Стаж: 2 года

Сообщений: 7741



Награды: Нет

Торрент-статистика

Создавать темы 07-Июл-2015 00:09

[Цитировать]

Сват / Once I Was / The Matchmaker / Paam haiti Год выпуска: 2010.
Страна: Израиль .
Жанр: драма.
Продолжительность: 01:52:26.
Перевод: Профессиональный (многоголосый закадровый).
Субтитры: нет.
Оригинальная аудио дорожка: нет.
Режиссер: Ави Нешер /Avi Nesher/.
В ролях:
Адир Миллер, Майя Даган, Туваль Шафир, Дрор Керен, Дов Навон, Ярден Бар-Кохба, Нета Порат, Коби Фарадж, Яэль Левенталь, Том Гал, Якоб Бодо, Эли Яцпан.
Описание:
Лето 1968 года. Время эйфории, охватившей всю страну после шестидневной войны. Жизнь трех хайфских подростков круто меняется после знакомства с районами нижнего города, где обитают пережившие Холокост и беженцы из Вади Салиб, контрабандисты и маргиналы. Центром незнакомого доселе мира является кинотеатр, который принадлежит семерым лилипутам...
Доп. информация:
Киностудии: Artomas Communications, Metro Communications, United Channel Movies.
Авторы сценария: Ави Нешер, Амир Гутфренд.
Оператор: Мишель Абрамович.
Композитор: Филипп Сард.
Художники: Мигель Маркин, Рона Дорон.
Премьера: 24 июня 2010 года.

Еще постеры


Качество: DVDRip
Формат: AVI
Видео: 656x272 (2.41:1), 25 fps, XviD build 50 ~804 kbps avg, 0.18 bit/pixel
Аудио: 48 kHz, MPEG Layer 3, 2 ch, ~112.00 kbps avg

Отчет Media Info

Общее
Полное имя : Svat.2010.XviD.DVDRip_745.avi
Format : AVI
Format/Info : Audio Video Interleave
File size : 745 MiB
Duration : 1h 52mn
Overall bit rate : 927 Kbps
Movie name : Сват / Paam Hayiti / Once I Was / The Matchmaker (2010) / Сват / Paam Hayiti / Once I Was / The Matchmaker (2010)
Video
ID : 0
Format : MPEG-4 Visual
Format profile : Advanced Simple@L5
Format settings, BVOP : 1
Format settings, QPel : No
Format settings, GMC : No warppoints
Format settings, Matrix : Default (MPEG)
Codec ID : XVID
Codec ID/Hint : XviD
Duration : 1h 52mn
Bit rate : 805 Kbps
Width : 656 pixels
Height : 272 pixels
Display aspect ratio : 2.40:1
Frame rate : 25.000 fps
Color space : YUV
Chroma subsampling : 4:2:0
Bit depth : 8 bits
Scan type : Progressive
Compression mode : Lossy
Bits/(Pixel*Frame) : 0.180
Stream size : 647 MiB (87%)
Writing library : XviD 1.2.1 (UTC 2008-12-04)
Audio
ID : 1
Format : MPEG Audio
Format version : Version 1
Format profile : Layer 3
Mode : Joint stereo
Mode extension : MS Stereo
Codec ID : 55
Codec ID/Hint : MP3
Duration : 1h 52mn
Bit rate mode : Constant
Bit rate : 112 Kbps
Channel(s) : 2 channels
Sampling rate : 48.0 KHz
Compression mode : Lossy
Stream size : 90.1 MiB (12%)
Alignment : Split accross interleaves
Interleave, duration : 40 ms (1.00 video frame)
Interleave, preload duratio : 500 ms
Language : Russian / Russian / Russian

Скиншот с названием

Скриншоты

Альтернативный хост

[Профиль] [ЛС]

Создавать темы 06-Авг-2015 22:25 (спустя 30 дней)

Топик был перенесен из форума Фильмы до 2014 года в форум Фильмы до 2012 года
sergej644
 

Создавать темы 12-Июн-2016 07:55 (спустя 11 месяцев 5 дней)

Топик был перенесен из форума Фильмы 2011 года в форум Фильмы 2010 года
Russian Mafia
 
Показать сообщения:    

Текущее время: Сегодня 04:21

Часовой пояс: GMT



Вы не можете начинать темы
Вы не можете отвечать на сообщения
Вы не можете редактировать свои сообщения
Вы не можете удалять свои сообщения
Вы не можете голосовать в опросах
Вы не можете прикреплять файлы к сообщениям
Вы не можете скачивать файлы