Сват / Once I Was / The Matchmaker / Paam haiti (Ави Нешер / Avi Nesher) [2010, Израиль, драма, экранизация, DVDRip] VO (Чадов)

 
Автор Сообщение

reversefile ®

Пол:

Стаж: 4 года 5 месяцев

Сообщений: 842

Откуда: ReverseFile.org



Награды: Нет

Торрент-статистика

Создавать темы 13-Авг-2014 10:02

[Цитировать]

Сват / Once I Was / The Matchmaker / Paam haiti
Страна: Израиль
Жанр: драма, экранизация
Год выпуска: 2010
Продолжительность: 01:52:26
Перевод: Одноголосый закадровый (Михаил Чадов)
Cубтитры: нет
Оригинальная аудиодорожка: иврит
Режиссер: Ави Нешер / Avi Nesher
В ролях: Адир Миллер, Майя Дегэн, Туваль Шафир, Дрор Керен, Дов Навон, Ярден Бар-Кохба, Нета Порат, Бат Эль Папура, Коби Фарадж, Яэль Левинталь
Описание: Арик, 16-летний подросток из Хайфы, увлекается чтением детективов. Случайное знакомство с Яковом Брайдом, сватом, меняет его жизнь. Смышленый парнишка понравился Якову, и он приглашает Арика к себе на работу в качестве «шпиона», который должен следить за клиентами брачного агенства и собирать о них информацию. Вскоре Арик понимает, что сватовство - не главное занятие Брайда.

Доп. инфо.: Перевод - Ombranetta. Озвучка Михаила Чадова доступна благодаря будулайроманову. Работа со звуком - sashock86
Сэмпл: http://sendfile.su/1009418
Качество видео: DVDRip
Формат видео: AVI
Видео: 704x304 (2.32:1), 25 fps, XviD MPEG-4 ~1533 kbps avg, 0.29 bit/pixel
Аудио 1: 48 kHz, AC3 Dolby Digital, 3/2 (L,C,R,l,r) + LFE ch, ~448 kbps [Rus]
Аудио 2: 48 kHz, AC3 Dolby Digital, 3/2 (L,C,R,l,r) + LFE ch, ~448 kbps [Original]

MediaInfo

Общее
Полное имя : Svat.2010.DVDRip.Rus.Eng.AC3.avi
Формат : AVI
Формат/Информация : Audio Video Interleave
Размер файла : 1,92 Гбайт
Продолжительность : 1 ч. 52 м.
Общий поток : 2445 Кбит/сек
Программа кодирования : VirtualDubMod 1.5.10.2 (build 2542/release)
Библиотека кодирования : VirtualDubMod build 2542/release
Видео
Идентификатор : 0
Формат : MPEG-4 Visual
Профиль формата : Advanced Simple@L5
Параметр BVOP формата : 2
Параметр QPel формата : Нет
Параметр GMC формата : Без точки перехода
Параметр матрицы формата : Default (H.263)
Идентификатор кодека : XVID
Идентификатор кодека/Подсказка : XviD
Продолжительность : 1 ч. 52 м.
Битрейт : 1535 Кбит/сек
Ширина : 704 пикселя
Высота : 304 пикселя
Соотношение сторон : 2,35:1
Частота кадров : 25,000 кадров/сек
Цветовое пространство : YUV
Субдискретизация насыщенности : 4:2:0
Битовая глубина : 8 бит
Тип развёртки : Прогрессивная
Метод сжатия : С потерями
Бит/(Пиксели*Кадры) : 0.287
Размер потока : 1,21 Гбайт (63%)
Библиотека кодирования : XviD 1.2.1 (UTC 2008-12-04)
Аудио #1
Идентификатор : 1
Формат : AC-3
Формат/Информация : Audio Coding 3
Расширение режима : CM (complete main)
Параметр Endianness формата : Big
Идентификатор кодека : 2000
Продолжительность : 1 ч. 52 м.
Вид битрейта : Постоянный
Битрейт : 448 Кбит/сек
Каналы : 6 каналов
Расположение каналов : Front: L C R, Side: L R, LFE
Частота : 48,0 КГц
Битовая глубина : 16 бит
Метод сжатия : С потерями
Задержка видео : 600 мс.
Размер потока : 360 Мбайт (18%)
Выравнивание : Разделение по промежуткам
Продолжительность промежутка : 40 мс. (1,00 видеокадр)
Время предзагрузки промежутка : 500 мс.
Аудио #2
Идентификатор : 2
Формат : AC-3
Формат/Информация : Audio Coding 3
Расширение режима : CM (complete main)
Параметр Endianness формата : Big
Идентификатор кодека : 2000
Продолжительность : 1 ч. 52 м.
Вид битрейта : Постоянный
Битрейт : 448 Кбит/сек
Каналы : 6 каналов
Расположение каналов : Front: L C R, Side: L R, LFE
Частота : 48,0 КГц
Битовая глубина : 16 бит
Метод сжатия : С потерями
Задержка видео : 400 мс.
Размер потока : 360 Мбайт (18%)
Выравнивание : Разделение по промежуткам
Продолжительность промежутка : 40 мс. (1,00 видеокадр)
Время предзагрузки промежутка : 500 мс.

Скриншот c названием фильма

Скриншоты

[Профиль] [ЛС]

Создавать темы 06-Авг-2015 23:19 (спустя 11 месяцев 24 дня)

Топик был перенесен из форума Фильмы до 2014 года в форум Фильмы до 2012 года
sergej644
 

Создавать темы 12-Июн-2016 07:54 (спустя 1 год 9 месяцев)

Топик был перенесен из форума Фильмы 2011 года в форум Фильмы 2010 года
Russian Mafia
 
Показать сообщения:    

Текущее время: Сегодня 16:43

Часовой пояс: GMT



Вы не можете начинать темы
Вы не можете отвечать на сообщения
Вы не можете редактировать свои сообщения
Вы не можете удалять свои сообщения
Вы не можете голосовать в опросах
Вы не можете прикреплять файлы к сообщениям
Вы не можете скачивать файлы