Сват / Once I Was / The Matchmaker / Paam haiti (Ави Нешер / Avi Nesher) [2010 г., Израиль, драма, DVDRip] VO (Чадов)

 
Автор Сообщение

reversefile ®

Пол:

Стаж: 4 года 5 месяцев

Сообщений: 842

Откуда: ReverseFile.org



Награды: Нет

Торрент-статистика

Создавать темы 13-Авг-2014 10:02

[Цитировать]

Сват / Once I Was / The Matchmaker / Paam haiti Страна: Израиль
Жанр: драма
Год выпуска: 2010
Продолжительность: 01:52:22
Перевод: Одноголосый закадровый Михаил Чадов
Cубтитры: нет
Режиссер: Ави Нешер / Avi Nesher
В ролях: Адир Миллер, Майя Дегэн, Туваль Шафир, Дрор Керен, Дов Навон, Ярден Бар-Кохба, Нета Порат, Бат Эль Папура, Коби Фарадж, Яэль Левинталь
Описание: Лето 1968 года. Время эйфории, охватившей всю страну после шестидневной войны. Жизнь трех хайфских подростков круто меняется после знакомства с районами нижнего города, где обитают пережившие Холокост и беженцы из Вади Салиб, контрабандисты и маргиналы. Центром незнакомого доселе мира является кинотеатр, который принадлежит семерым лилипутам.

Качество видео: DVDRip
Формат видео: AVI
Видео кодек: XviD
Аудио кодек: АС3
Видео: 688x288 (2.39:1), 25 fps, XviD build 73 ~706 kbps avg, 0.14 bit/pixel
Аудио: 48 kHz, AC3 Dolby Digital, 2/0 (L,R) ch, ~192 kbps

Доп.инфо

Перевод - Ombranetta. Озвучка Михаила Чадова доступна благодаря будулайроманову. Работа со звуком - sashock86 всем большое спасибо!

MediaInfo

Полное имя : E:\фильмы\Сват 2010.avi
Формат : AVI
Формат/Информация : Audio Video Interleave
Размер файла : 730 Мбайт
Продолжительность : 1 ч. 52 м.
Общий поток : 909 Кбит/сек
Программа кодирования : VirtualDubMod 1.5.10.2 (build 2540/release)
Библиотека кодирования : VirtualDubMod build 2540/release
Видео
Идентификатор : 0
Формат : MPEG-4 Visual
Профиль формата : Advanced Simple@L5
Параметр BVOP формата : 2
Параметр QPel формата : Нет
Параметр GMC формата : Без точки перехода
Параметр матрицы формата : Default (H.263)
Идентификатор кодека : XVID
Идентификатор кодека/Подсказка : XviD
Продолжительность : 1 ч. 52 м.
Битрейт : 707 Кбит/сек
Ширина : 688 пикселей
Высота : 288 пикселей
Соотношение сторон : 2,40:1
Частота кадров : 25,000 кадров/сек
Цветовое пространство : YUV
Субдискретизация насыщенности : 4:2:0
Битовая глубина : 8 бит
Тип развёртки : Прогрессивная
Метод сжатия : С потерями
Бит/(Пиксели*Кадры) : 0.143
Размер потока : 568 Мбайт (78%)
Библиотека кодирования : XviD 73
Аудио
Идентификатор : 1
Формат : AC-3
Формат/Информация : Audio Coding 3
Расширение режима : CM (complete main)
Параметр Endianness формата : Big
Идентификатор кодека : 2000
Продолжительность : 1 ч. 52 м.
Вид битрейта : Постоянный
Битрейт : 192 Кбит/сек
Каналы : 2 канала
Расположение каналов : Front: L R
Частота : 48,0 КГц
Битовая глубина : 16 бит
Метод сжатия : С потерями
Размер потока : 154 Мбайт (21%)
Выравнивание : Разделение по промежуткам
Продолжительность промежутка : 40 мс. (1,00 видеокадр)
Время предзагрузки промежутка : 500 мс.

Скриншоты

[Профиль] [ЛС]

Создавать темы 06-Авг-2015 23:19 (спустя 11 месяцев 24 дня)

Топик был перенесен из форума Фильмы до 2014 года в форум Фильмы до 2012 года
sergej644
 

Создавать темы 12-Июн-2016 07:54 (спустя 1 год 9 месяцев)

Топик был перенесен из форума Фильмы 2011 года в форум Фильмы 2010 года
Russian Mafia
 
Показать сообщения:    

Текущее время: Сегодня 07:13

Часовой пояс: GMT



Вы не можете начинать темы
Вы не можете отвечать на сообщения
Вы не можете редактировать свои сообщения
Вы не можете удалять свои сообщения
Вы не можете голосовать в опросах
Вы не можете прикреплять файлы к сообщениям
Вы не можете скачивать файлы