Сваты / Сезон: 6 / Серии: 1-16 из 16 (Андрей Яковлев) [2013 г., комедия, SATRip]

 
Автор Сообщение

sergej644 ®

Пол:

Стаж: 4 года 11 месяцев

Сообщений: 6038

Откуда: Soviet Union



Награды: Нет

Торрент-статистика

Создавать темы 20-Авг-2014 20:23

[Цитировать]

-Сваты-- Производство: Украина
Жанр: комедия
Год выпуска: 2013 г.
Продолжительность: 00:47:35
Режиссер: Андрей Яковлев-В ролях: Федор Добронравов, Татьяна Кравченко, Людмила Артемьева, Анна Кошмал, Александр Феклистов, Анна Полищук, Константин Чернокрылюк, Олеся Железняк, Николай Добрынин, Владимир Зельдин-Описание: Женя Ковалева( Анна Кошмал) закончила существовать готом и сейчас у нее новейшие мучения - мальчишки практически не обращают на нее интереса. Она рыдает в подушечку в самом непродолжительном времени и ночами, а предки Евгении не знают, что делать. Близнецы опять шалят и не предоставляют родителям тихо существовать, непрерывно вынимают страдающую старшую сестру. Когда бабули и дед увлекаются жизнью собственных потомоков и деток, предки снова пытаются утаить все невзгоды их семьи, но это изготовить не выходит, ибо сваты ощущают что-то неладное и приезжают к Маше( Инна Королёва) и Максиму( Даниил Белых). Конечно, они не имеют все шансы бросить всё происходящее без дела и хватаются за перевоспитание и подавление сдерживание близнецов Ковалевых, а еще подсобляют Женечке постановить ее делему. Близится лето. Все едут в Кучугуры. Там у них опять немало приключений, в их жизнь вписывается Лариса( Олеся Железняк) с Митяем( Николай Добрынин), у которых возникла... двойня. Однако за лето, не постановив немало заморочек, сваты с ощущением невезения отдают деток домой. Спустя некоторое количество месяцев наступают новогодние каникулы. Родители улетают в Испанию, а собственных деток посылают... непонятно кому, то ли Берковичу( Александр Феклистов) и Ольге Николаевне( Людмила Артемьева), то ли Валюхе( Татьяна Кравченко) с Иваном( Федор Добронравов)... Сваты не имеют все шансы постановить, у кого станет мнучка, вследствие что Оля с Берковичем на время зимних каникул перебираются к Валюхе с Иваном. Внезапно приезжают предки сватов, и они совместно проходят ряд очередных приключений и встречают новейший год. Близнецы стают покорными, а Женя встречает Кирилла( Денис Шепотинник) и её и " Сватов " ожидают новейшие забавные летописи.-Качество видео: SATRip
Контейнер: AVI
Видео кодек: XviD
Аудио кодек: MP3
Видео: 720x400 , XviD, 1267 kbps , 25000 fps
Аудио: 192 kbps , 2 ch , 48.0 kHz
Cубтитры: отсутствуют

Media Info

Format : AVI
Format/Info : Audio Video Interleave
File size : 500 MiB
Duration : 47mn 35s
Overall bit rate : 1 469 Kbps
Writing application : VirtualDubMod 1.5.10.2 (build 2540/release)
Writing library : VirtualDubMod build 2540/release
Video
ID : 0
Format : MPEG-4 Visual
Format profile : Simple@L3
Format settings, BVOP : No
Format settings, QPel : No
Format settings, GMC : No warppoints
Format settings, Matrix : Default (H.263)
Codec ID : XVID
Codec ID/Hint : XviD
Duration : 47mn 35s
Bit rate : 1 267 Kbps
Width : 720 pixels
Height : 400 pixels
Display aspect ratio : 16:9
Frame rate : 25.000 fps
Color space : YUV
Chroma subsampling : 4:2:0
Bit depth : 8 bits
Scan type : Progressive
Compression mode : Lossy
Bits/(Pixel*Frame) : 0.176
Stream size : 431 MiB (86%)
Writing library : XviD 1.1.2 (UTC 2006-11-01)
Audio
ID : 1
Format : MPEG Audio
Format version : Version 1
Format profile : Layer 3
Mode : Joint stereo
Mode extension : MS Stereo
Codec ID : 55
Codec ID/Hint : MP3
Duration : 47mn 35s
Bit rate mode : Constant
Bit rate : 192 Kbps
Channel(s) : 2 channels
Sampling rate : 48.0 KHz
Compression mode : Lossy
Stream size : 65.3 MiB (13%)
Alignment : Split accross interleaves
Interleave, duration : 40 ms (1.00 video frame)
Interleave, preload duration : 500 ms
Writing library : LAME3.98

Скриншоты

[Профиль] [ЛС]
Показать сообщения:    

Текущее время: Сегодня 04:17

Часовой пояс: GMT



Вы не можете начинать темы
Вы не можете отвечать на сообщения
Вы не можете редактировать свои сообщения
Вы не можете удалять свои сообщения
Вы не можете голосовать в опросах
Вы не можете прикреплять файлы к сообщениям
Вы не можете скачивать файлы