Свадьба на Рождество / A Christmas Wedding (2006) DVDRip

 
Автор Сообщение

sergej644 ®

Пол:

Стаж: 4 года 11 месяцев

Сообщений: 6046

Откуда: Soviet Union



Награды: Нет

Торрент-статистика

Создавать темы 07-Янв-2015 19:47

[Цитировать]

-Свадьба на Рождество / A Christmas Wedding (2006) DVDRip-Год выпуска: 2006
Производство: США
Жанр: Комедия, мелодрама
Режиссер: Майкл Цинберг
Актеры: Сара Полсон, Эрик Мэбиас, Ричард Блэкберн, Дин Кэйн, Рейган Пастернак, Арт Хиндл, Луиз Питре, Мими Кузык, Джордж Бьюза, Оуэн Паттисон, Дуэйн Хилл, Билл МакФедден, Астрид Ван Вирен, Джанесса Хант, Шерри Смит, Джоан Грегсон, Ли Дж. Кэмпбелл, Джереми Акерман, Роберт Бокстэл, Деннис Акаяма, Нэнси Риган, Кристен Белл, Чейз Даффи, Брайан Джеймисон, Йен Тенч, Мэттью МакКоулл, Нэнси Маршалл, Рени Эбботт, Кори Боулз, Гари Леверт
Описание фильма:
Эмили и Бен решили пожениться на Рождество, ведь именно в этот прекрасный день они встретились два года назад. И надо же было такому случиться, что накануне столь знаменательного события Эмили пришлось уехать в командировку, оставив все предсвадебные хлопоты Бену. Но, как оказалось, главные трудности были еще впереди: когда Эмили, уладив дела, собралась домой, выяснилось, что из-за снежной бури все вылеты отменены. Теперь единственное, что имеет для нее значение, — это успеть на собственную свадьбу!
Перевод: Профессиональный многоголосый

Продолжительность: 01:24:49
Качество видео: DVDRip
Видеокодек: XviD
Битрейт видео: ~2059 Кбит/с
Размер кадра: 720x400
Аудио:
1. AC3, 2 ch, 192 Кбит/с - русский
2. AC3, 2 ch, 192 Кбит/с - английский

MediaInfo:

Общее
Полное имя : C:\12\Свадьба на Рождество\Svadjba na Rozhdestvo 2006 DVDRip.avi
Формат : AVI
Формат/Информация : Audio Video Interleave
Размер файла : 1,46 Гбайт
Продолжительность : 1 ч. 24 м.
Общий поток : 2457 Кбит/сек
Программа кодирования : VirtualDubMod 1.5.10.2 (build 2540/release)
Видео
Идентификатор : 0
Формат : MPEG-4 Visual
Профиль формата : Advanced Simple@L5
Параметр BVOP формата : 1
Параметр QPel формата : Нет
Параметр GMC формата : Без точки перехода
Параметр матрицы формата : Выборочная
Идентификатор кодека : XVID
Идентификатор кодека/Подсказка : XviD
Продолжительность : 1 ч. 24 м.
Битрейт : 2059 Кбит/сек
Ширина : 720 пикселей
Высота : 400 пикселей
Соотношение сторон : 16:9
Частота кадров : 25,000 кадров/сек
Цветовое пространство : YUV
Субдискретизация насыщенности : 4:2:0
Битовая глубина : 8 бит
Тип развёртки : Прогрессивная
Метод сжатия : С потерями
Бит/(Пиксели*Кадры) : 0.286
Размер потока : 1,22 Гбайт (84%)
Библиотека кодирования : XviD 1.2.1 (UTC 2008-12-04)
Аудио #1
Идентификатор : 1
Формат : AC-3
Формат/Информация : Audio Coding 3
Профиль формата : Dolby Digital
Расширение режима : CM (complete main)
Идентификатор кодека : 2000
Продолжительность : 1 ч. 24 м.
Вид битрейта : Постоянный
Битрейт : 192 Кбит/сек
Каналы : 2 канала
Расположение каналов : Front: L R
Частота : 48,0 КГц
Битовая глубина : 16 бит
Метод сжатия : С потерями
Размер потока : 116 Мбайт (8%)
Выравнивание : Разделение по промежуткам
Продолжительность промежутка : 40 мс. (1,00 видеокадр)
Время предзагрузки промежутка : 500 мс.
Аудио #2
Идентификатор : 2
Формат : AC-3
Формат/Информация : Audio Coding 3
Профиль формата : Dolby Digital
Расширение режима : CM (complete main)
Идентификатор кодека : 2000
Продолжительность : 1 ч. 24 м.
Вид битрейта : Постоянный
Битрейт : 192 Кбит/сек
Каналы : 2 канала
Расположение каналов : Front: L R
Частота : 48,0 КГц
Битовая глубина : 16 бит
Метод сжатия : С потерями
Размер потока : 116 Мбайт (8%)
Выравнивание : Разделение по промежуткам
Продолжительность промежутка : 40 мс. (1,00 видеокадр)
Время предзагрузки промежутка : 500 мс.
Скриншоты:
Время раздачи:Круглосуточно до 10 скачавших
[Профиль] [ЛС]

Создавать темы 06-Авг-2015 22:50 (спустя 6 месяцев 30 дней)

Топик был перенесен из форума Фильмы до 2014 года в форум Фильмы до 2012 года
sergej644
 
Показать сообщения:    

Текущее время: Сегодня 06:27

Часовой пояс: GMT



Вы не можете начинать темы
Вы не можете отвечать на сообщения
Вы не можете редактировать свои сообщения
Вы не можете удалять свои сообщения
Вы не можете голосовать в опросах
Вы не можете прикреплять файлы к сообщениям
Вы не можете скачивать файлы