Свадьба Дженни / Jenny's Wedding (2015) WEB-DL 720p | L

 
Автор Сообщение

достали все ®

Пол:

Стаж: 1 год 8 месяцев

Сообщений: 6571



Награды: 12 (Подробнее)

Mega Seeder 2 (Количество: 1) За внесенный вклад в развитие сайта (Количество: 1) Mega Releaser 2 (Количество: 1)
Торрент-статистика

Создавать темы 07-Окт-2015 17:44

[Цитировать]

Информация о фильме
Название: Свадьба Дженни
Оригинальное название: Jenny's Wedding
Год выхода: 2015
Жанр: драма, комедия
Режиссер: Мэри Агнес Донохью
В ролях: Кэтрин Хейгл, Том Уилкинсон, Линда Эмонд, Грэйс Гаммер, Алексис Бледел, Сэм МакМюррей, Диана Хардкэсл, Мэттью Мецгер, Хьюстон Райнс, Кэтлин О’Мэлли
О фильме: Сюжет строится вокруг девушки Дженни, которая готовится к свадьбе и страдает от постоянной нервотрепки. Больше всех нервы ей треплют родители, маме и папе никак не нравится «жених» дочери. Дело в том, что Дженни — лесбиянка, и, соответственно, вступает в брак с женщиной. Для консервативных родителей известие было шоком.

Выпущено: США / Merced Media Partners, MM Productions, Palm-Star Entertainment
Продолжительность: 01:34:30
Озвучивание: Любительское (многоголосое) [GreenРай Studio - Райм, Баира, datynet, mazehacka, Андрей Циклис], перевод [elmar]
Файл
Формат: MKV
Качество: WEB-DL 720p
Видео: MPEG-4 AVC, 3981 kb/s, 1280x534
Аудио: Russian: AC3, 192 kb/s (2 ch) / English: AC3, 384 kb/s (6 ch)
Субтитры: English

MI

Format : Matroska
Format version : Version 4 / Version 2
File size : 3.07 GiB
Duration : 1h 34mn
Overall bit rate : 4 650 Kbps
Encoded date : UTC 2015-10-07 12:25:52
Writing application : mkvmerge v6.9.1 ('Blue Panther') 64bit built on Apr 18 2014 18:23:38
Writing library : libebml v1.3.0 + libmatroska v1.4.1
DURATION : 01:28:34.341000000
NUMBER_OF_FRAMES : 1305
NUMBER_OF_BYTES : 56954
_STATISTICS_WRITING_APP : mkvmerge v7.0.0 ('Where We Going') 64bit built on Jun 9 2014 15:16:27
_STATISTICS_WRITING_DATE_UTC : 2015-07-31 06:23:19
_STATISTICS_TAGS : BPS DURATION NUMBER_OF_FRAMES NUMBER_OF_BYTES
Video
ID : 1
Format : AVC
Format/Info : Advanced Video Codec
Format profile : Main@L3.1
Format settings, CABAC : No
Format settings, ReFrames : 2 frames
Codec ID : V_MPEG4/ISO/AVC
Duration : 1h 34mn
Bit rate : 3 981 Kbps
Width : 1 280 pixels
Height : 534 pixels
Display aspect ratio : 2.40:1
Frame rate mode : Constant
Frame rate : 23.976 fps
Color space : YUV
Chroma subsampling : 4:2:0
Bit depth : 8 bits
Scan type : Progressive
Bits/(Pixel*Frame) : 0.243
Stream size : 2.63 GiB (86%)
Language : English
Default : Yes
Forced : No
Color range : Limited
Color primaries : BT.709
Transfer characteristics : BT.709
Matrix coefficients : BT.709
Audio #1
ID : 2
Format : AC-3
Format/Info : Audio Coding 3
Mode extension : CM (complete main)
Format settings, Endianness : Big
Codec ID : A_AC3
Duration : 1h 34mn
Bit rate mode : Constant
Bit rate : 192 Kbps
Channel(s) : 2 channels
Channel positions : Front: L R
Sampling rate : 48.0 KHz
Bit depth : 16 bits
Compression mode : Lossy
Stream size : 130 MiB (4%)
Language : Russian
Default : Yes
Forced : No
Audio #2
ID : 3
Format : AC-3
Format/Info : Audio Coding 3
Mode extension : CM (complete main)
Format settings, Endianness : Big
Codec ID : A_AC3
Duration : 1h 34mn
Bit rate mode : Constant
Bit rate : 384 Kbps
Channel(s) : 6 channels
Channel positions : Front: L C R, Side: L R, LFE
Sampling rate : 48.0 KHz
Bit depth : 16 bits
Compression mode : Lossy
Stream size : 260 MiB (8%)
Language : English
Default : No
Forced : No
Text
ID : 4
Format : UTF-8
Codec ID : S_TEXT/UTF8
Codec ID/Info : UTF-8 Plain Text
Language : English
Default : No
Forced : No
Menu
00:00:00.000 : en:1
00:10:07.000 : en:2
00:22:19.000 : en:3
00:35:34.000 : en:4
00:44:37.000 : en:5
00:51:43.000 : en:6
01:02:55.000 : en:7
01:09:04.000 : en:8
01:19:28.000 : en:9
01:30:24.000 : en:10

Скриншоты



[Профиль] [ЛС]
Показать сообщения:    

Текущее время: Сегодня 16:42

Часовой пояс: GMT



Вы не можете начинать темы
Вы не можете отвечать на сообщения
Вы не можете редактировать свои сообщения
Вы не можете удалять свои сообщения
Вы не можете голосовать в опросах
Вы не можете прикреплять файлы к сообщениям
Вы не можете скачивать файлы