Свадьба в Малиновке (Андрей Тутышкин) [1967, СССР, Комедия, BDRip 1080p] + Original Rus

 
Автор Сообщение

TorrentFilm ®

Пол:

Стаж: 2 года

Сообщений: 7741



Награды: Нет

Торрент-статистика

Создавать темы 03-Янв-2016 00:05

[Цитировать]

Свадьба в Малиновке
Страна: СССР
Студия: Ленфильм
Жанр: Комедия
Год выпуска: 1967
Продолжительность: 01:32:20
Перевод: Не требуется
Cубтитры: нет
Оригинальная аудиодорожка: русский
Режиссер: Андрей Тутышкин
В ролях: Владимир Самойлов, Людмила Алфимова, Валентина Лысенко, Евгений Лебедев, Зоя Фёдорова, Гелий Сысоев, Михаил Пуговкин, Николай Сличенко, Андрей Абрикосов, Григорий Абрикосов, Михаил Водяной, Тамара Носова, Эмма Трейвас, Алексей Смирнов, Маргарита Криницына, Александр Орлов, Юрий Шепелев, Любовь Тищенко, Александр Захаров, Раиса Пироженко, Алексей Захаров, Николай Пишванов, Лев Степанов, Валентина Николаенко
Описание: Идет гражданская воина. В украинской деревне то и дело меняется власть. Чтобы разделаться с бандой головорезов, красный командир уговаривает девушку Яринку разыграть ее свадьбу с атаманом...
Доп. информация: Полная реставрация изображения и звука Объединения "Крупный план".
Сэмпл: http://rusfolder.com/38270864
Тип релиза: BDRip 1080p
Контейнер: MKV
Видео: 14,0 Мбит/сек,1920x816 (2.35:1), в 23,976 кадр/сек, AVC (High@L4.1) (CABAC / 4 Ref Frames)
Аудио: 448 Кбит/сек, 48,0 КГц, 16 бит, 6 каналов, AC-3

MediaInfo

Общее
Уникальный идентификатор : 209136935545712785908539666501117160382 (0x9D564F04A2C5C4F89E844B499F942BBE)
Полное имя : G:\Свадьба в Малиновке 1967, 1080p.mkv
Формат : Matroska
Версия формата : Version 4 / Version 2
Размер файла : 9,32 Гбайт
Продолжительность : 1 ч. 32 м.
Общий поток : 14,4 Мбит/сек
Дата кодирования : UTC 2013-06-17 15:55:22
Программа кодирования : mkvmerge v6.1.0 ('Old Devil') built on Mar 2 2013 14:32:37
Библиотека кодирования : libebml v1.3.0 + libmatroska v1.4.0
Attachment : Yes
Видео
Идентификатор : 1
Формат : AVC
Формат/Информация : Advanced Video Codec
Профиль формата : High@L4.1
Параметр CABAC формата : Да
Параметр ReFrames формата : 4 кадра
Параметры GOP формата : M=5, N=6
Идентификатор кодека : V_MPEG4/ISO/AVC
Продолжительность : 1 ч. 32 м.
Битрейт : 14,0 Мбит/сек
Ширина : 1920 пикс.
Высота : 816 пикс.
Соотношение сторон : 2,35:1
Частота кадров : 23,976 кадр/сек
Цветовое пространство : YUV
Подвыборка цветности : 4:2:0
Битовая глубина : 8 бит
Тип развёртки : Прогрессивная
Бит/(Пиксели*Кадры) : 0.373
Размер потока : 8,84 Гбайт (95%)
Библиотека кодирования : x264 core 132 r2310 76a5c3a
Настройки программы : cabac=1 / ref=4 / deblock=1:-2:-2 / analyse=0x3:0x113 / me=umh / subme=10 / psy=1 / psy_rd=1.00:0.15 / mixed_ref=1 / me_range=16 / chroma_me=1 / trellis=2 / 8x8dct=1 / cqm=0 / deadzone=21,11 / fast_pskip=0 / chroma_qp_offset=-3 / threads=3 / lookahead_threads=1 / sliced_threads=0 / nr=0 / decimate=0 / interlaced=0 / bluray_compat=0 / constrained_intra=0 / bframes=6 / b_pyramid=2 / b_adapt=2 / b_bias=0 / direct=3 / weightb=1 / open_gop=0 / weightp=2 / keyint=240 / keyint_min=24 / scenecut=40 / intra_refresh=0 / rc_lookahead=60 / rc=2pass / mbtree=0 / bitrate=14000 / ratetol=1.0 / qcomp=0.65 / qpmin=0 / qpmax=69 / qpstep=4 / cplxblur=20.0 / qblur=0.5 / vbv_maxrate=40000 / vbv_bufsize=30000 / nal_hrd=none / ip_ratio=1.40 / pb_ratio=1.30 / aq=1:0.80
Аудио
Идентификатор : 2
Формат : AC-3
Формат/Информация : Audio Coding 3
Расширение режима : CM (complete main)
Идентификатор кодека : A_AC3
Продолжительность : 1 ч. 32 м.
Вид битрейта : Постоянный
Битрейт : 448 Кбит/сек
Каналы : 6 каналов
Расположение каналов : Front: L C R, Side: L R, LFE
Частота : 48,0 КГц
Битовая глубина : 16 бит
Метод сжатия : С потерями
Размер потока : 296 Мбайт (3%)
Меню
00:00:00.000 : en:Chapter 1
00:07:54.807 : en:Chapter 2
00:13:37.942 : en:Chapter 3
00:21:39.298 : en:Chapter 4
00:32:16.935 : en:Chapter 5
00:36:33.566 : en:Chapter 6
00:45:03.659 : en:Chapter 7
00:49:36.682 : en:Chapter 8
00:53:58.443 : en:Chapter 9
01:00:59.197 : en:Chapter 10
01:05:12.658 : en:Chapter 11
01:11:36.417 : en:Chapter 12
01:15:28.524 : en:Chapter 13
01:22:51.216 : en:Chapter 14
01:29:34.994 : en:Chapter 15

Скриншоты

[Профиль] [ЛС]
Показать сообщения:    

Текущее время: Сегодня 02:06

Часовой пояс: GMT



Вы не можете начинать темы
Вы не можете отвечать на сообщения
Вы не можете редактировать свои сообщения
Вы не можете удалять свои сообщения
Вы не можете голосовать в опросах
Вы не можете прикреплять файлы к сообщениям
Вы не можете скачивать файлы