Сборник мультфильмов - Союзмультфильм: Русские народные сказки [08 шт] (1949-1984) DVDRip

 
Автор Сообщение

достали все ®

Пол:

Стаж: 1 год 8 месяцев

Сообщений: 6600



Награды: 12 (Подробнее)

За внесенный вклад в развитие сайта (Количество: 1) Mega Seeder 5 (Количество: 1) Top Releaser 4 (Количество: 1)
Торрент-статистика

Создавать темы 07-Апр-2016 15:26

[Цитировать]

Страна: СССР
Производство: Союзмультфильм
Жанр: мультфильм, короткометражка
Год выпуска: 1949-1984
Продолжительность: 02:32:11
Перевод: Не требуется
Cубтитры: нет
Оригинальная аудиодорожка: русский
Режиссер: Иван Иванов-Вано, Ольга Ходатаева, Михаил Цехановский...
Описание:
Русская народная сказка (до XVII в. баснь, байка) — произведение устного творчества русского народа, один из видов фольклорной прозы. В русских сказках русский народ пытался высказать своё национальное мироощущение, наставить своих детей в первобытной, но глубокой жизненной мудрости, — разрешая лежавшие на его сердце жизненные, нравственные, семейные, бытовые и государственные вопросы.
В. Я. Пропп, «блистательный исследователь русской сказки» считал, что «сказка содержит какие-то вечные, неувядаемые ценности».
«Союзмультфильм» — крупнейшая в СССР и теперь в России студия мультипликационных фильмов, основанная в Москве 10 июня 1936 года. Студия создана 10 июня 1936 года с названием — «Союздетмультфильм» (из объединения мелких коллективов Мосфильма, Совкино и Межрабпромфильма), а с 20 августа 1937 года ее переименовали в «Союзмультфильм». Огромное количество созданных на «Союзмультфильм» работ - это народные сказки.
-Источник: DVD9 R5
Качество видео: DVDRip
Формат видео: AVI
Видео: 704x528 (4:3), 25 fps, XviD ~ 1828 kbps avg, 0.197 bit/pixel
Аудио: 48 kHz, Dolby Digital AC3 2.0, 192 kbps
Раздача от:

Список мультфильмов

01. Гуси-лебеди (1949) 0:18:33
02. Сестрица Аленушка и братец Иванушка (1953) 0:10:11
03. Царевна-лягушка (1954) 0:38:47
04. В некотором царстве… (1957) 0:28:24
05. Молодильные яблоки (1974) 0:19:15
06. Последняя невеста Змея Горыныча (1978) 0:17:50
07. Лиса Патрикеевна (1982) 0:09:49
08. Медведь – липовая нога (1984) 0:09:22

MediaInfo

Общее
Полное имя : Russkie.narodnye.skazki.1954.DVDRip_[New-team]_by_AVP_Studio.avi
Формат : AVI
Формат/Информация : Audio Video Interleave
Размер файла : 269 Мбайт
Продолжительность : 18 м.
Общий поток : 2030 Кбит/сек
Программа кодирования : VirtualDubMod 1.5.10.3 | www.virtualdub-fr.org || (build 2550/release)
Библиотека кодирования : VirtualDubMod build 2550/release
Видео
Идентификатор : 0
Формат : MPEG-4 Visual
Профиль формата : Advanced Simple@L5
Параметр BVOP формата : 1
Параметр QPel формата : Нет
Параметр GMC формата : Без точки перехода
Параметр матрицы формата : Выборочная
Идентификатор кодека : XVID
Идентификатор кодека/Подсказка : XviD
Продолжительность : 18 м.
Битрейт : 1828 Кбит/сек
Ширина : 704 пикселя
Высота : 528 пикселей
Соотношение сторон : 4:3
Частота кадров : 25,000 кадров/сек
Цветовое пространство : YUV
Субдискретизация насыщенности : 4:2:0
Битовая глубина : 8 бит
Тип развёртки : Прогрессивная
Метод сжатия : С потерями
Бит/(Пиксели*Кадры) : 0.197
Размер потока : 243 Мбайт (90%)
Библиотека кодирования : XviD 1.2.1 (UTC 2008-12-04)
Аудио
Идентификатор : 1
Формат : AC-3
Формат/Информация : Audio Coding 3
Расширение режима : CM (complete main)
Параметр Endianness формата : Big
Идентификатор кодека : 2000
Продолжительность : 18 м.
Вид битрейта : Постоянный
Битрейт : 192 Кбит/сек
Каналы : 2 канала
Расположение каналов : Front: L R
Частота : 48,0 КГц
Частота кадров : 31,250 кадров/сек (1536 spf)
Метод сжатия : С потерями
Размер потока : 25,5 Мбайт (9%)
Выравнивание : Разделение по промежуткам
Продолжительность промежутка : 40 мс. (1,00 видеокадр)
Время предзагрузки промежутка : 500 мс

Скриншоты

[Профиль] [ЛС]
Показать сообщения:    

Текущее время: Сегодня 05:17

Часовой пояс: GMT



Вы не можете начинать темы
Вы не можете отвечать на сообщения
Вы не можете редактировать свои сообщения
Вы не можете удалять свои сообщения
Вы не можете голосовать в опросах
Вы не можете прикреплять файлы к сообщениям
Вы не можете скачивать файлы