(Шансон) Сборная Союза - Дядя Женя - 2013, (image+.cue), lossless

 
Автор Сообщение

sergej644 ®

Пол:

Стаж: 4 года 11 месяцев

Сообщений: 6046

Откуда: Soviet Union



Награды: Нет

Торрент-статистика

Создавать темы 03-Сен-2014 19:45

[Цитировать]

Сборная Союза - Дядя ЖеняЖанр: Шансон
Страна-производитель диска: Россия
Год издания: 2013
Страна: Россия
Аудиокодек: FLAC (*.flac)
Тип рипа: image+.cue
Битрейт аудио: lossless
Продолжительность: 1:11:40
Источник (релизер): KEN-KIRILLOV
Наличие сканов в содержимом раздачи: да

Треклист


01. Дядя Женя
02. Звуки жизни
03. Братья по сути
04. Звёздочка
05. Алёна
06. В Вологде-где
07. Бабушка
08. Десятое апреля
09. За наших пацанов
10. Утро доброе
11. Снова осень
12. Белая акация
13. А может быть
14. Третий лишний
15. Вот она воля
16. Случаеться в жизни
17. Не потому мы одиноки
18. Мы пришли из ниоткуда
19. В жизни всё бывает
20. На берегу Вологды

Лог создания рипа

Exact Audio Copy V1.0 beta 3 from 29. August 2011
Отчёт EAC об извлечении, выполненном 2. марта 2013, 10:04
Сборная Союза / Дядя Женя
Дисковод: Optiarc DVD RW AD-5200S   Adapter: 1  ID: 1
Режим чтения                 : Достоверность
Использование точного потока : Да
Отключение кэша аудио        : Да
Использование указателей C2  : Нет
Коррекция смещения при чтении                     : 48
Способность читать области Lead-in и Lead-out     : Нет
Заполнение пропущенных сэмплов тишиной            : Да
Удаление блоков с тишиной в начале и конце        : Нет
При вычислениях CRC использовались нулевые сэмплы : Да
Интерфейс                                         : Установленный внешний ASPI-интерфейс
Выходной формат          : Пользовательский кодировщик
Выбранный битрейт        : 896 kBit/s
Качество                 : Высокий
Добавление ID3-тега      : Нет
Утилита сжатия           : E:\Portable Exact Audio Copy 1.0 beta 3 RUS\App\EAC\FLAC\flac.exe
Дополнительные параметры : -V -8 %source%
TOC извлечённого CD
     Трек |   Старт  | Длительность | Начальный сектор | Конечный сектор
    ---------------------------------------------------------------------
       1  |  0:00.00 |    3:19.08   |           0      |      14932
       2  |  3:19.08 |    4:05.03   |       14933      |      33310
       3  |  7:24.11 |    3:06.73   |       33311      |      47333
       4  | 10:31.09 |    3:47.28   |       47334      |      64386
       5  | 14:18.37 |    3:58.08   |       64387      |      82244
       6  | 18:16.45 |    3:11.33   |       82245      |      96602
       7  | 21:28.03 |    3:57.30   |       96603      |     114407
       8  | 25:25.33 |    3:36.08   |      114408      |     130615
       9  | 29:01.41 |    3:27.57   |      130616      |     146197
      10  | 32:29.23 |    2:56.36   |      146198      |     159433
      11  | 35:25.59 |    3:30.31   |      159434      |     175214
      12  | 38:56.15 |    4:01.40   |      175215      |     193329
      13  | 42:57.55 |    3:37.37   |      193330      |     209641
      14  | 46:35.17 |    3:39.60   |      209642      |     226126
      15  | 50:15.02 |    3:47.07   |      226127      |     243158
      16  | 54:02.09 |    3:56.64   |      243159      |     260922
      17  | 57:58.73 |    3:25.31   |      260923      |     276328
      18  | 61:24.29 |    3:12.71   |      276329      |     290799
      19  | 64:37.25 |    3:59.46   |      290800      |     308770
      20  | 68:36.71 |    3:02.58   |      308771      |     322478
Характеристики диапазона извлечения и сообщения об ошибках
Выбранный диапазон
     Имя файла D:\Сборная союза 2013 Дядя Женя\Сборная Союза - Дядя Женя.wav
     Пиковый уровень 100.0 %
     Скорость извлечения 4.4 X
     Качество диапазона 99.9 %
     CRC теста 8AD93085
     CRC копии 8AD93085
     Копирование... OK
Ошибок не произошло
Конец отчёта
==== Контрольная сумма отчёта F30C108431699B0DA596C9EBDB667C1BA4C27CD376A3AEAC6493D9985D36E58C ====

Содержание индексной карты (.CUE)

REM GENRE Шансон
REM DATE 2013
REM DISCID 2D10CB14
REM COMMENT ExactAudioCopy v1.0b3
PERFORMER "Сборная Союза"
TITLE "Дядя Женя"
FILE "Сборная Союза - Дядя Женя.wav" WAVE
  TRACK 01 AUDIO
    TITLE "Дядя Женя"
    INDEX 01 00:00:00
  TRACK 02 AUDIO
    TITLE "Звуки жизни"
    INDEX 01 03:19:08
  TRACK 03 AUDIO
    TITLE "Братья по сути"
    INDEX 01 07:24:11
  TRACK 04 AUDIO
    TITLE "Звёздочка"
    INDEX 01 10:31:09
  TRACK 05 AUDIO
    TITLE "Алёна"
    INDEX 01 14:18:37
  TRACK 06 AUDIO
    TITLE "В Вологде-где"
    INDEX 01 18:16:45
  TRACK 07 AUDIO
    TITLE "Бабушка"
    INDEX 01 21:28:03
  TRACK 08 AUDIO
    TITLE "Десятое апреля"
    INDEX 01 25:25:33
  TRACK 09 AUDIO
    TITLE "За наших пацанов"
    INDEX 01 29:01:41
  TRACK 10 AUDIO
    TITLE "Утро доброе"
    INDEX 01 32:29:23
  TRACK 11 AUDIO
    TITLE "Снова осень"
    INDEX 01 35:25:59
  TRACK 12 AUDIO
    TITLE "Белая акация"
    INDEX 01 38:56:15
  TRACK 13 AUDIO
    TITLE "А может быть"
    INDEX 01 42:57:55
  TRACK 14 AUDIO
    TITLE "Третий лишний"
    INDEX 01 46:35:17
  TRACK 15 AUDIO
    TITLE "Вот она воля"
    INDEX 01 50:15:02
  TRACK 16 AUDIO
    TITLE "Случаеться в жизни"
    INDEX 01 54:02:09
  TRACK 17 AUDIO
    TITLE "Не потому мы одиноки"
    INDEX 01 57:58:73
  TRACK 18 AUDIO
    TITLE "Мы пришли из ниоткуда"
    INDEX 01 61:24:29
  TRACK 19 AUDIO
    TITLE "В жизни всё бывает"
    INDEX 01 64:37:25
  TRACK 20 AUDIO
    TITLE "На берегу Вологды"
    INDEX 01 68:36:71

Скриншот спектра частот

--
[Профиль] [ЛС]

Создавать темы 13-Авг-2015 10:06 (спустя 11 месяцев 9 дней)

Топик был перенесен из форума Отечественная в форум Сhanson
sergej644
 
Кто просматривает тему:

Показать сообщения:    

Текущее время: Сегодня 21:33

Часовой пояс: GMT



Вы не можете начинать темы
Вы не можете отвечать на сообщения
Вы не можете редактировать свои сообщения
Вы не можете удалять свои сообщения
Вы не можете голосовать в опросах
Вы не можете прикреплять файлы к сообщениям
Вы не можете скачивать файлы