(Chanson, Pop) Сборная Союза - Глава семьи - 2013, (image+.cue), lossless

 
Автор Сообщение

sergej644 ®

Пол:

Стаж: 4 года 11 месяцев

Сообщений: 6045

Откуда: Soviet Union



Награды: Нет

Торрент-статистика

Создавать темы 03-Сен-2014 19:40

[Цитировать]

Сборная Союза - Глава семьиЖанр: Chanson, Pop
Страна-производитель диска: Россия
Год издания: 2013
Страна: Россия
Аудиокодек: FLAC (*.flac)
Тип рипа: image+.cue
Битрейт аудио: lossless
Продолжительность: 1:15:13
Источник (релизер): KEN-KIRILLOV
Наличие сканов в содержимом раздачи: да

треклист


01. Глава семьи
02. Любовь-царица
03. Мне жаль
04. Дорога-жизнь
05. Наши сердца
06. Обручальное кольцо
07. Он и она
08. Не дразни
09. Малолетка
10. Ангел во плоти
11. Алё малыш
12. Наше лето
13. Облака любви
14. Тик и так
15. Прости меня
16. Когда?
17. Мы не пара
18. Однажды утром
19. Наташка
20. Где-то

Лог создания рипа

Exact Audio Copy V1.0 beta 3 from 29. August 2011
Отчёт EAC об извлечении, выполненном 4. мая 2013, 3:43
Сборная союза / Глава семьи
Дисковод: Optiarc DVD RW AD-5200S   Adapter: 1  ID: 1
Режим чтения                 : Достоверность
Использование точного потока : Да
Отключение кэша аудио        : Да
Использование указателей C2  : Нет
Коррекция смещения при чтении                     : 48
Способность читать области Lead-in и Lead-out     : Нет
Заполнение пропущенных сэмплов тишиной            : Да
Удаление блоков с тишиной в начале и конце        : Нет
При вычислениях CRC использовались нулевые сэмплы : Да
Интерфейс                                         : Установленный внешний ASPI-интерфейс
Выходной формат          : Пользовательский кодировщик
Выбранный битрейт        : 896 kBit/s
Качество                 : Высокий
Добавление ID3-тега      : Нет
Утилита сжатия           : E:\Portable Exact Audio Copy 1.0 beta 3 RUS\App\EAC\FLAC\flac.exe
Дополнительные параметры : -V -8 %source%
TOC извлечённого CD
Трек |   Старт  | Длительность | Начальный сектор | Конечный сектор
---------------------------------------------------------------------
1  |  0:00.00 |    3:12.11   |           0      |      14410
2  |  3:12.11 |    3:48.24   |       14411      |      31534
3  |  7:00.35 |    3:33.73   |       31535      |      47582
4  | 10:34.33 |    4:04.03   |       47583      |      65885
5  | 14:38.36 |    3:48.58   |       65886      |      83043
6  | 18:27.19 |    4:01.36   |       83044      |     101154
7  | 22:28.55 |    3:31.10   |      101155      |     116989
8  | 25:59.65 |    4:07.00   |      116990      |     135514
9  | 30:06.65 |    3:25.16   |      135515      |     150905
10  | 33:32.06 |    3:38.42   |      150906      |     167297
11  | 37:10.48 |    3:49.03   |      167298      |     184475
12  | 40:59.51 |    3:50.71   |      184476      |     201796
13  | 44:50.47 |    3:53.32   |      201797      |     219303
14  | 48:44.04 |    3:12.55   |      219304      |     233758
15  | 51:56.59 |    3:28.22   |      233759      |     249380
16  | 55:25.06 |    3:56.51   |      249381      |     267131
17  | 59:21.57 |    4:16.20   |      267132      |     286351
18  | 63:38.02 |    3:55.68   |      286352      |     304044
19  | 67:33.70 |    3:33.73   |      304045      |     320092
20  | 71:07.68 |    4:05.02   |      320093      |     338469
Характеристики диапазона извлечения и сообщения об ошибках
Выбранный диапазон
Имя файла D:\Сборная союза 2013 - Глава семьи (Lossless)\Сборная союза - Глава семьи.wav
Пиковый уровень 100.0 %
Скорость извлечения 4.5 X
Качество диапазона 100.0 %
CRC теста E8EEB3A9
CRC копии E8EEB3A9
Копирование... OK
Ошибок не произошло
Конец отчёта
==== Контрольная сумма отчёта CF3E3091E17B48510AEEA6FF6E2688DEEC3F336D136034553B9A6F04F68A1B26 ====

Содержание индексной карты (.CUE)

REM GENRE Chanson
REM DATE 2013
REM DISCID 0A11A014
REM COMMENT ExactAudioCopy v1.0b3
PERFORMER "Сборная союза"
TITLE "Глава семьи"
FILE "Сборная союза - Глава семьи.wav" WAVE
  TRACK 01 AUDIO
    TITLE "Глава семьи"
    INDEX 01 00:00:00
  TRACK 02 AUDIO
    TITLE "Любовь-царица"
    INDEX 01 03:12:11
  TRACK 03 AUDIO
    TITLE "Мне жаль"
    INDEX 01 07:00:35
  TRACK 04 AUDIO
    TITLE "Дорога-жизнь"
    INDEX 01 10:34:33
  TRACK 05 AUDIO
    TITLE "Наши сердца"
    INDEX 01 14:38:36
  TRACK 06 AUDIO
    TITLE "Обручальное кольцо"
    INDEX 01 18:27:19
  TRACK 07 AUDIO
    TITLE "Он и она"
    INDEX 01 22:28:55
  TRACK 08 AUDIO
    TITLE "Не дразни"
    INDEX 01 25:59:65
  TRACK 09 AUDIO
    TITLE "Малолетка"
    INDEX 01 30:06:65
  TRACK 10 AUDIO
    TITLE "Ангел во плоти"
    INDEX 01 33:32:06
  TRACK 11 AUDIO
    TITLE "Алё малыш"
    INDEX 01 37:10:48
  TRACK 12 AUDIO
    TITLE "Наше лето"
    INDEX 01 40:59:51
  TRACK 13 AUDIO
    TITLE "Облака любви"
    INDEX 01 44:50:47
  TRACK 14 AUDIO
    TITLE "Тик и так"
    INDEX 01 48:44:04
  TRACK 15 AUDIO
    TITLE "Прости меня"
    INDEX 01 51:56:59
  TRACK 16 AUDIO
    TITLE "Когда?"
    INDEX 01 55:25:06
  TRACK 17 AUDIO
    TITLE "Мы не пара"
    INDEX 01 59:21:57
  TRACK 18 AUDIO
    TITLE "Однажды утром"
    INDEX 01 63:38:02
  TRACK 19 AUDIO
    TITLE "Наташка"
    INDEX 01 67:33:70
  TRACK 20 AUDIO
    TITLE "Где-то"
    INDEX 01 71:07:68

Скриншот спектра частот

--
[Профиль] [ЛС]

Создавать темы 13-Авг-2015 10:29 (спустя 11 месяцев 9 дней)

Топик был перенесен из форума Отечественная в форум Pop
sergej644
 
Кто просматривает тему:

Показать сообщения:    

Текущее время: Сегодня 16:27

Часовой пояс: GMT



Вы не можете начинать темы
Вы не можете отвечать на сообщения
Вы не можете редактировать свои сообщения
Вы не можете удалять свои сообщения
Вы не можете голосовать в опросах
Вы не можете прикреплять файлы к сообщениям
Вы не можете скачивать файлы