Сбежавший жених / Дон Пейот / Don Peyote (Михаэль Кансонейро / Michael Canzoniero, Дэн Фоглер / Dan Fogler) [2014, США, драма, комедия, WEB-DLRip] MVO

 
Автор Сообщение

TorrentFilm ®

Пол:

Стаж: 2 года

Сообщений: 7741



Награды: Нет

Торрент-статистика

Создавать темы 22-Дек-2014 02:00

[Цитировать]

Сбежавший жених / Дон Пейот / Don Peyote
Страна: США
Жанр: драма, комедия
Год выпуска: 2014
Продолжительность: 01:39:05
Перевод: Профессиональный (многоголосый закадровый)
Оригинальная аудиодорожка: нет
Cубтитры: нет
Режиссер: Михаэль Кансонейро / Michael Canzoniero, Дэн Фоглер / Dan Fogler
В ролях: Энн Хэтэуэй, Джей Барушель, Джош Дюамель, Тофер Грэйс, Аннабелла Шиорра, Уоллес Шоун, Дин Уинтерс, Дэн Фоглер, Абель Феррара, Шон Броснан
Описание: Неудачник и разгильдяй Уоррен перепробовал в своей жизни немало профессий, однако ни в одной из них не смог добиться успеха. Да и, сказать по правде, ничего из того, чем он занимался, Уоррену никогда не нравилось. Но однажды Уоррен встречает бездомного чудака, который без устали твердит о приближающемся апокалипсисе. Уоррен так загорается этой идеей скорого конца света, что решает снять документальный фильм, посвященный этой тематике. А тем временем его девушка во всю готовится к их свадьбе, даже не догадываясь, что для Уоррена вопрос брака отодвинулся на второй план. Сбежавший жених – это веселая комедия, в которой комичное органично сочетается с трагичными элементами.
Сэмпл
Качество: WEB-DLRip
Контейнер: AVI
Видео: 720x400 (1.80:1), 23.976 fps, XviD build 50 ~1643 kbps avg, 0.24 bit/pixel
Аудио: 48 kHz, AC3 Dolby Digital, 3/2 (L,C,R,l,r) + LFE ch, ~448 kbps

MI

General
Complete name : C:\Users\Вячеслав\Downloads\Don.Peyote.2013.WEBDLRip.MegaPeer.avi
Format : AVI
Format/Info : Audio Video Interleave
File size : 1.45 GiB
Duration : 1h 39mn
Overall bit rate : 2 101 Kbps
Writing application : VirtualDubMod 1.5.10.3 | www.virtualdub-fr.org || (build 2550/release)
Writing library : VirtualDubMod build 2550/release
Video
ID : 0
Format : MPEG-4 Visual
Format profile : Advanced Simple@L5
Format settings, BVOP : 1
Format settings, QPel : No
Format settings, GMC : No warppoints
Format settings, Matrix : Custom
Codec ID : XVID
Codec ID/Hint : XviD
Duration : 1h 39mn
Bit rate : 1 644 Kbps
Width : 720 pixels
Height : 400 pixels
Display aspect ratio : 16:9
Frame rate : 23.976 fps
Color space : YUV
Chroma subsampling : 4:2:0
Bit depth : 8 bits
Scan type : Progressive
Compression mode : Lossy
Bits/(Pixel*Frame) : 0.238
Stream size : 1.14 GiB (78%)
Writing library : XviD 1.2.1 (UTC 2008-12-04)
Audio
ID : 1
Format : AC-3
Format/Info : Audio Coding 3
Mode extension : CM (complete main)
Format settings, Endianness : Big
Codec ID : 2000
Duration : 1h 39mn
Bit rate mode : Constant
Bit rate : 448 Kbps
Channel(s) : 6 channels
Channel positions : Front: L C R, Side: L R, LFE
Sampling rate : 48.0 KHz
Bit depth : 16 bits
Compression mode : Lossy
Stream size : 317 MiB (21%)
Alignment : Split accross interleaves
Interleave, duration : 42 ms (1.00 video frame)
Interleave, preload duration : 500 ms

Скриншоты

[Профиль] [ЛС]
Кто просматривает тему:

Показать сообщения:    

Текущее время: Сегодня 02:15

Часовой пояс: GMT



Вы не можете начинать темы
Вы не можете отвечать на сообщения
Вы не можете редактировать свои сообщения
Вы не можете удалять свои сообщения
Вы не можете голосовать в опросах
Вы не можете прикреплять файлы к сообщениям
Вы не можете скачивать файлы