Сбежавшая невеста / Runaway Bride (1999) BDRip 1080p | D, P, A

 
Автор Сообщение

BOSS ®

Пол:

Стаж: 3 года 9 месяцев

Сообщений: 11149

Откуда: ODESSA



Награды: 22 (Подробнее)

Top Keeper 3 (Количество: 1) Mega Seeder 5 (Количество: 1) Top Releaser 4 (Количество: 1)
Торрент-статистика

Создавать темы 11-Июл-2018 16:16

[Цитировать]

Информация о фильме
Название: Сбежавшая невеста
Оригинальное название: Runaway Bride
Год выхода: 1999
Жанр: Комедия
Режиссер: Гэрри Маршалл
В ролях: Ричард Гир, Джулия Робертс, Джоан Кьюсак, Гектор Элизондо, Рита Уилсон, Пол Дули, Кристофер Мелони, Донал Лог, Рег Роджерс, Юл Васкез
О фильме:
Айк, нью-йоркский журналист (Гир), написал статью о девушке, сбегавшей из-под венца семь раз, назвав ее "мужеедкой и ненасытной богиней". В журнал пришло опровержение - она, Мэгги Карпентер (Робертс), сбегала с собственных свадеб только три раза. Журналиста, обвиненного в клевете, уволили за искажение фактов. Вместо того чтобы искать работу, он отправляется туда, где живет невеста-беглянка, и знакомится с нею. Теперь эта симпатичная чудачка собирается замуж за Боба, работающего тренером в школе, который настаивает на том, чтобы в медовый месяц они покорили Эверест. По ходу развития сюжета зритель лучше узнает Мэгги, ее друзей и окружение, оценит цельность ее характера и поймет, что не сумасбродство было причиной неоднократного бегства из-под венца. Тем временем становится ясно, что журналист совсем неравнодушен к невесте-беглянке. Вскоре Боб получает от ворот поворот. Должна состояться свадьба Мэгги и Айка...

Страна: США
Студия: Paramount Pictures, Touchstone Pictures, Interscope Communications, Lakeshore Entertainment
Продолжительность: 01:56:21
Перевод: Дублированный, профессиональный многоголосый, авторский
Файл
Кодек: x264
Качество: BDRip 1080p
Видео: MPEG-4 AVC, 9909 Kбит/с, 1920x804
Звук #1: AC3, 6 ch, 448 Кбит/с | Дублирование
Звук #2: AC3, 2 ch, 192 Кбит/с | Профессиональный многоголосый (РТР / ТНТ) VHSRip-ТВ
Звук #3: AC3, 2 ch, 192 Кбит/с | Авторский (Юрий Сербин / Пирамида) VHSRip
Звук #4: AC3, 2 ch, 192 Кбит/с | Авторский (Андрей Дольский) VHSRip
Звук #5: AC3, 2 ch, 192 Кбит/с | Авторский (Юрий Живов) DVDRip
Звук #6: AC3, 2 ch, 192 Кбит/с | Авторский (Александр Кашкин/Первомайский) VHSRip
Звук #7: AC3, 6 ch, 384 Кбит/с | Английский
Субтитры: Русские, английские (SRT)

Награды

Премия канала «MTV», 2000 год
Номинации (1):
Лучшая женская роль (Джулия Робертс)

Скриншоты

Инфо-файл

Формат : Matroska
Версия формата : Version 2
Размер файла : 9,70 Гбайт
Продолжительность : 1 ч. 56 м.
Общий поток : 11,9 Мбит/сек
Название фильма : Runaway.Bride.1999.1080p.BluRay.by.zzZGVvv
Дата кодирования : UTC 2018-07-11 05:50:42
Программа кодирования : mkvmerge v5.8.0 ('No Sleep / Pillow') built on Sep 2 2012 15:37:04
Библиотека кодирования : libebml v1.2.3 + libmatroska v1.3.0
Attachements : cover.jpg
Видео
Идентификатор : 1
Формат : AVC
Формат/Информация : Advanced Video Codec
Профиль формата : High@L4.1
Параметр CABAC формата : Да
Параметр ReFrames формата : 5 кадров
Идентификатор кодека : V_MPEG4/ISO/AVC
Продолжительность : 1 ч. 56 м.
Битрейт : 9909 Кбит/сек
Ширина : 1920 пикселей
Высота : 804 пикселя
Соотношение сторон : 2,40:1
Режим частоты кадров : Постоянный
Частота кадров : 23,976 кадра/сек
Цветовое пространство : YUV
Субдискретизация насыщенности : 4:2:0
Битовая глубина : 8 бит
Тип развёртки : Прогрессивная
Бит/(Пиксели*Кадры) : 0.268
Размер потока : 8,05 Гбайт (83%)
Заголовок : Runaway.Bride.1999.1080p.BluRay.by.zzZGVvv
Библиотека кодирования : x264 core 148 r2705 3f5ed56
Настройки программы : cabac=1 / ref=5 / deblock=1:-3:-3 / analyse=0x3:0x133 / me=umh / subme=9 / psy=1 / psy_rd=1.00:0.25 / mixed_ref=1 / me_range=24 / chroma_me=1 / trellis=2 / 8x8dct=1 / cqm=0 / deadzone=21,11 / fast_pskip=1 / chroma_qp_offset=-4 / threads=24 / lookahead_threads=2 / sliced_threads=0 / nr=0 / decimate=1 / interlaced=0 / bluray_compat=0 / constrained_intra=0 / bframes=3 / b_pyramid=2 / b_adapt=2 / b_bias=0 / direct=3 / weightb=1 / open_gop=0 / weightp=2 / keyint=240 / keyint_min=24 / scenecut=40 / intra_refresh=0 / rc_lookahead=60 / rc=crf / mbtree=1 / crf=19.0 / qcomp=0.60 / qpmin=0 / qpmax=69 / qpstep=4 / ip_ratio=1.40 / aq=1:0.50
Default : Да
Forced : Нет
Аудио #1
Идентификатор : 2
Формат : AC-3
Формат/Информация : Audio Coding 3
Расширение режима : CM (complete main)
Параметр Endianness формата : Big
Идентификатор кодека : A_AC3
Продолжительность : 1 ч. 56 м.
Вид битрейта : Постоянный
Битрейт : 448 Кбит/сек
Каналы : 6 каналов
Расположение каналов : Front: L C R, Side: L R, LFE
Частота : 48,0 КГц
Метод сжатия : С потерями
Размер потока : 373 Мбайт (4%)
Заголовок : Dub
Язык : Russian
Default : Да
Forced : Нет
Аудио #2
Идентификатор : 3
Формат : AC-3
Формат/Информация : Audio Coding 3
Расширение режима : CM (complete main)
Параметр Endianness формата : Big
Идентификатор кодека : A_AC3
Продолжительность : 1 ч. 56 м.
Вид битрейта : Постоянный
Битрейт : 192 Кбит/сек
Каналы : 2 канала
Расположение каналов : Front: L R
Частота : 48,0 КГц
Метод сжатия : С потерями
Размер потока : 160 Мбайт (2%)
Заголовок : MVO [РТР / ТНТ] VHSRip-ТВ
Язык : Russian
Default : Нет
Forced : Нет
Аудио #3
Идентификатор : 4
Формат : AC-3
Формат/Информация : Audio Coding 3
Расширение режима : CM (complete main)
Параметр Endianness формата : Big
Идентификатор кодека : A_AC3
Продолжительность : 1 ч. 56 м.
Вид битрейта : Постоянный
Битрейт : 192 Кбит/сек
Каналы : 2 канала
Расположение каналов : Front: L R
Частота : 48,0 КГц
Метод сжатия : С потерями
Размер потока : 160 Мбайт (2%)
Заголовок : AVO [Юрий Сербин / Пирамида] VHSRip
Язык : Russian
Default : Нет
Forced : Нет
Аудио #4
Идентификатор : 5
Формат : AC-3
Формат/Информация : Audio Coding 3
Расширение режима : CM (complete main)
Параметр Endianness формата : Big
Идентификатор кодека : A_AC3
Продолжительность : 1 ч. 56 м.
Вид битрейта : Постоянный
Битрейт : 192 Кбит/сек
Каналы : 2 канала
Расположение каналов : Front: L R
Частота : 48,0 КГц
Метод сжатия : С потерями
Размер потока : 160 Мбайт (2%)
Заголовок : AVO [Дольский] VHSRip
Язык : Russian
Default : Нет
Forced : Нет
Аудио #5
Идентификатор : 6
Формат : AC-3
Формат/Информация : Audio Coding 3
Расширение режима : CM (complete main)
Параметр Endianness формата : Big
Идентификатор кодека : A_AC3
Продолжительность : 1 ч. 56 м.
Вид битрейта : Постоянный
Битрейт : 192 Кбит/сек
Каналы : 2 канала
Расположение каналов : Front: L R
Частота : 48,0 КГц
Метод сжатия : С потерями
Размер потока : 160 Мбайт (2%)
Заголовок : AVO [Живов] DVDRip
Язык : Russian
Default : Нет
Forced : Нет
Аудио #6
Идентификатор : 7
Формат : AC-3
Формат/Информация : Audio Coding 3
Расширение режима : CM (complete main)
Параметр Endianness формата : Big
Идентификатор кодека : A_AC3
Продолжительность : 1 ч. 56 м.
Вид битрейта : Постоянный
Битрейт : 192 Кбит/сек
Каналы : 2 канала
Расположение каналов : Front: L R
Частота : 48,0 КГц
Метод сжатия : С потерями
Размер потока : 160 Мбайт (2%)
Заголовок : AVO [Кашкин] VHSRip
Язык : Russian
Default : Нет
Forced : Нет
Аудио #7
Идентификатор : 8
Формат : AC-3
Формат/Информация : Audio Coding 3
Расширение режима : CM (complete main)
Параметр Endianness формата : Big
Идентификатор кодека : A_AC3
Продолжительность : 1 ч. 56 м.
Вид битрейта : Постоянный
Битрейт : 384 Кбит/сек
Каналы : 6 каналов
Расположение каналов : Front: L C R, Side: L R, LFE
Частота : 48,0 КГц
Метод сжатия : С потерями
Размер потока : 320 Мбайт (3%)
Язык : English
Default : Нет
Forced : Нет
Текст #1
Идентификатор : 9
Формат : UTF-8
Идентификатор кодека : S_TEXT/UTF8
Идентификатор кодека/Информация : UTF-8 Plain Text
Язык : Russian
Default : Нет
Forced : Нет
Текст #2
Идентификатор : 10
Формат : UTF-8
Идентификатор кодека : S_TEXT/UTF8
Идентификатор кодека/Информация : UTF-8 Plain Text
Язык : English
Default : Нет
Forced : Нет
Текст #3
Идентификатор : 11
Формат : UTF-8
Идентификатор кодека : S_TEXT/UTF8
Идентификатор кодека/Информация : UTF-8 Plain Text
Заголовок : SDH
Язык : English
Default : Нет
Forced : Нет
Меню
00:00:00.000 : en:00:00:00.000
00:06:21.265 : en:00:06:21.256
00:11:59.436 : en:00:11:59.427
00:15:11.503 : en:00:15:11.494
00:20:45.545 : en:00:20:45.536
00:27:52.597 : en:00:27:52.588
00:31:23.224 : en:00:31:23.215
00:34:24.238 : en:00:34:24.229
00:37:28.881 : en:00:37:28.872
00:45:26.441 : en:00:45:26.432
00:51:02.402 : en:00:51:02.393
00:53:40.893 : en:00:53:40.884
00:57:11.270 : en:00:57:11.261
01:00:27.007 : en:01:00:26.998
01:05:34.356 : en:01:05:34.347
01:08:45.422 : en:01:08:45.413
01:17:27.902 : en:01:17:27.893
01:26:11.175 : en:01:26:11.166
01:37:39.154 : en:01:37:39.145
01:41:40.562 : en:01:41:40.553
01:49:20.521 : en:01:49:20.512
[Профиль] [ЛС]
Показать сообщения:    

Текущее время: Сегодня 22:22

Часовой пояс: GMT



Вы не можете начинать темы
Вы не можете отвечать на сообщения
Вы не можете редактировать свои сообщения
Вы не можете удалять свои сообщения
Вы не можете голосовать в опросах
Вы не можете прикреплять файлы к сообщениям
Вы не можете скачивать файлы