Сахар / That Sugar Film (2014) HDTV 1080i | P

 
Автор Сообщение

Razboynik ®

Пол:

Стаж: 2 года

Сообщений: 106



Награды: Нет

Торрент-статистика

Создавать темы 25-Сен-2017 09:25

[Цитировать]

Информация о фильме
Название: Сахар
Оригинальное название: That Sugar Film
Год выхода: 2014
Жанр: Документальный
Режиссер: Дэймон Гамо
В ролях: Дэймон Гамо, Хью Джекман, Ричард Дейвис, Скайлар Дельфинус, Кристин Эванс, Стивен Фрай, Лиза Глафчис, Бенжамин Хэнкок, Зелия Китоко, Изабель Лукас
О фильме:
История о том, как общество потребления и мода на «здоровое питание» на самом деле приводят нас к ожирению. Австралийский режиссер и актер Дэймон Гамо снимает на камеру свой эксперимент, в ходе которого он начинает питаться исключительно едой, имеющей маркировку «healthy» (полезно для здоровья), чтобы раскрыть для зрителей всю горькую правду о сахаре, который на самом деле скрыт в свежевыжатых соках, обезжиренных йогуртах, мюсли, протеиновых батончиках и другой «полезной» еде.
Фильм демонстрирует изменения, которые происходят с телом молодого человека, до начала эксперимента не испытывающего проблем с лишним весом. Благодаря познавательному путешествию Дэймон освещает неизвестные многим факты о том, как строится индустрия пищевой промышленности и какого сахара на самом деле стоит опасаться на полках супермаркетов. Этот фильм навсегда изменит ваше представление о здоровом рационе.

Страна: Австралия
Продолжительность: 01:33:55
Перевод: Профессиональный многоголосый
Файл
Кодек: MPEG-4
Качество: HDTV 1080i
Видео: 1920х1080, 6814 Кбит/с, 24 кадр/с
Звук: Русский, AC3, 6 ка, 384 Кбит/с

Скриншоты

MI

Формат : Matroska
Версия формата : Version 4 / Version 2
Размер файла : 4,73 Гбайт
Продолжительность : 1 ч. 33 м.
Общий поток : 7201 Кбит/сек
Дата кодирования : UTC 2017-09-24 14:47:15
Программа кодирования : mkvmerge v15.0.0 ('Duel with the Devil') 64-bit
Библиотека кодирования : libebml v1.3.5 + libmatroska v1.4.5
Видео
Идентификатор : 1
Формат : AVC
Формат/Информация : Advanced Video Codec
Профиль формата : High@L4
Настройки формата : CABAC / 4 Ref Frames
Параметр CABAC формата : Да
Параметр RefFrames формата : 4 кадра
Идентификатор кодека : V_MPEG4/ISO/AVC
Продолжительность : 1 ч. 33 м.
Битрейт : 6814 Кбит/сек
Ширина : 1920 пикселей
Высота : 1080 пикселей
Соотношение сторон : 16:9
Режим частоты кадров : Постоянный
Частота кадров : 25,000 кадров/сек
Стандарт вещания : PAL
Цветовое пространство : YUV
Субдискретизация насыщенности : 4:2:0
Битовая глубина : 8 бит
Тип развёртки : MBAFF
Метод сохранения типа развёртки : Чередующиеся поля
Порядок развёртки : Верхнее поле первое
Бит/(Пиксели*Кадры) : 0.131
Размер потока : 4,47 Гбайт (95%)
Заголовок : САХАР
Язык : Russian
Default : Да
Forced : Нет
Цветовой диапазон : Limited
Основные цвета : BT.709
Характеристики трансфера : BT.709
Коэффициенты матрицы : BT.709
Аудио
Идентификатор : 2
Формат : AC-3
Формат/Информация : Audio Coding 3
Параметр Endianness формата : Big
Идентификатор кодека : A_AC3
Продолжительность : 1 ч. 33 м.
Вид битрейта : Постоянный
Битрейт : 384 Кбит/сек
Каналы : 6 каналов
Расположение каналов : Front: L C R, Side: L R, LFE
Частота : 48,0 КГц
Частота кадров : 31,250 кадров/сек (1536 SPF)
Битовая глубина : 16 бит
Метод сжатия : С потерями
Задержка видео : 372 мс.
Размер потока : 258 Мбайт (5%)
Заголовок : NovaMedia
Язык : Russian
ServiceKind : Complete Main
Default : Да
Forced : Нет
[Профиль] [ЛС]
Показать сообщения:    

Текущее время: Сегодня 10:18

Часовой пояс: GMT



Вы не можете начинать темы
Вы не можете отвечать на сообщения
Вы не можете редактировать свои сообщения
Вы не можете удалять свои сообщения
Вы не можете голосовать в опросах
Вы не можете прикреплять файлы к сообщениям
Вы не можете скачивать файлы