Сахарная гора / Sugar Mountain (2016) WEB-DLRip | L2

 
Author Message

достали все ®

Gender:

Longevity: 4 years 4 months

Posts: 6770



: 12 ()

Mega Seeder 3 (1) За внесенный вклад в развитие сайта (1) Mega Seeder 5 (1)
Торрент-статистика

Post 12-Dec-2016 22:55

[Quote]

Информация о фильме
Название: Сахарная гора
Оригинальное название: Sugar Mountain
Год выхода: 2016
Жанр: Драма, триллер
Режиссер: Ричард Грэй
В ролях: Джейсон Момоа, Кэри Элвис, Анна Хатчисон, Мелора Уолтерс, Джон Карна, Дрю Рой, Хейли Уэбб, Шэйн Цвинер, Стив Музакис, Кроуфорд Уилсон и др.
О фильме:
Двое братьев, которым все время не везет, оказываются в центре событий на Аляске. Перед ними открывается одно дело, которое они могут поведать миру и прославиться. Но правда ли все это или им просто кажется? Им придется выживать в пустыне и бороться за свое место под солнцем.

Страна: США
Продолжительность: 01:46:44
Перевод: Любительский двухголосый | RecentFilms
Файл
Кодек: XviD
Качество: WEB-DLRip
Видео: 720x298, 23.976 fps, ~1783 kbps
Звук:
Аудио rus: AC3, 48 kHz, 2 ch, 256 kbps | RecentFilms
Субтитры: Отсутствуют
Реклама: Присутствует реклама
Семпл

Релиз:

Релиз-группа: RecentFilms
Роли озвучивали: Ариса Лебедева, Семён Ващенко
Перевод: RecentFilms
Звукорежиссер: obrany
Монтаж и сведение звука: obrany

MediaInfo:

General
Complete name : F:RecentFilmsSugar.Mountain.2016.Recent.Films.avi
Format : AVI
Format/Info : Audio Video Interleave
File size : 1.53 GiB
Duration : 1h 46mn
Overall bit rate : 2 049 Kbps
Writing application : VirtualDubMod 1.5.10.2 (build 2540/release)
Writing library : VirtualDubMod build 2540/release
Video
ID : 0
Format : MPEG-4 Visual
Format profile : Advanced Simple@L5
Format settings, BVOP : 2
Format settings, QPel : No
Format settings, GMC : No warppoints
Format settings, Matrix : Default (H.263)
Muxing mode : Packed bitstream
Codec ID : XVID
Codec ID/Hint : XviD
Duration : 1h 46mn
Bit rate : 1 783 Kbps
Width : 720 pixels
Height : 298 pixels
Display aspect ratio : 2.40:1
Frame rate : 23.976 (24000/1001) fps
Color space : YUV
Chroma subsampling : 4:2:0
Bit depth : 8 bits
Scan type : Progressive
Compression mode : Lossy
Bits/(Pixel*Frame) : 0.347
Stream size : 1.33 GiB (87%)
Writing library : XviD 66
Audio
ID : 1
Format : AC-3
Format/Info : Audio Coding 3
Mode extension : CM (complete main)
Format settings, Endianness : Big
Codec ID : 2000
Duration : 1h 46mn
Bit rate mode : Constant
Bit rate : 256 Kbps
Channel(s) : 2 channels
Channel positions : Front: L R
Sampling rate : 48.0 KHz
Frame rate : 31.250 fps (1536 spf)
Compression mode : Lossy
Stream size : 195 MiB (12%)
Alignment : Split accross interleaves
Interleave, duration : 42 ms (1.00 video frame)
Interleave, preload duration : 500 ms

Скриншоты

Релиз от: Grandfather61
[Profile] [PM]
Кто просматривает тему:

Forum Topic Author Size
Фильмы (HD DVD, Blu-ray и BDRemux) Барышня-крестьянка (Алексей Сахаров) [1995, Россия, мелодрама, BDRip 720p] painkiller 6.28 GB
Фильмы (HD Rips | 720p, 1080p) Барышня-крестьянка (Алексей Сахаров) [1995, Россия, мелодрама, Blu-ray disc, 1080p] TorrentFilm 22.97 GB
Зарубежные сериалы Двойник (Контрмир, По ту сторону) / Counterpart (Сезон 2, Серия 1 - 10 из 10 )( Алик Сахаров, Мортен Тильдум) [2018, Фантастика, триллер, драма , WEB-DLRi... Враг Нароода 32.3 GB
Зарубежные сериалы Двойник (Контрмир, По ту сторону) / Counterpart (Сезон 2, Серия 1 - 10 из 10 )( Алик Сахаров, Мортен Тильдум) [2018, Фантастика, триллер, драма , WEB-DLR... Враг Нароода 19.93 GB
Зарубежные сериалы Двойник (Контрмир, По ту сторону) / Counterpart (Сезон 2, Серия 1 - 10 из 10 )( Алик Сахаров, Мортен Тильдум) [2018, Фантастика, триллер, драма , WEB-DLR... Враг Нароода 30.18 GB
Документальные HD Мир в фокусе. Сахара: зима в пустыне (RT) [2014, документальный, HDTVRip 1080i] TorrentFilm 992 MB
R.G.TorrentFilm Video Сахар / Suiker (Йерун Аннокке / Jeroen Annokkee) [2010 г., Короткометражка, комедия, SATRip] DVO (Эгоист ТВ) Один 777 68 MB
Документальные HD Сахар / That Sugar Film (2014) HDTV 1080i | P Razboynik 4.73 GB
Display posts from previous:    

The time now is: Today 08:21

All times are GMT



You cannot post new topics in this forum
You cannot reply to topics in this forum
You cannot edit your posts in this forum
You cannot delete your posts in this forum
You cannot vote in polls in this forum
You cannot attach files in this forum
You cannot download files in this forum