Сарбджит / Sarbjit (2016) BDRip 720 | L2

 
Автор Сообщение

BOSS ®

Пол:

Стаж: 2 года 10 месяцев

Сообщений: 6714

Откуда: ODESSA



Награды: 20 (Подробнее)

Mega Seeder 3 (Количество: 1) Mega Releaser 1 (Количество: 1) Top Releaser 4 (Количество: 1)
Торрент-статистика

Создавать темы 03-Авг-2017 07:33

[Цитировать]

Информация о фильме
Название: Сарбджит
Оригинальное название: Sarbjit
Год выхода: 2016
Жанр: Мюзикл, драма, биография, история
Режиссер: Омунг Кумар
В ролях: Рандип Худа, Айшвария Рай, Рича Чадда, Даршан Кумар, Анкита Шривастава, Анкур Бхатия, Арбаз Али Кхан, Чаранприт Сингх
О фильме:
Фильм повествует о Сарабджите Сингхе, который 23 года отсидел в пакистанской тюрьме и был приговорен к смерти за шпионаж и причастность к серии взрывов в пакистанской провинции Пенджаб в 1990 году. Его семья настаивала на том, что он — всего лишь фермер, который случайно пересек границу с Пакистаном и был принят за другого человека.

Выпущено: Индия / Legend Studio, Pooja Entertainment & Films, T-Series
Продолжительность: 02:11:57
Перевод: Любительский двухголосый (Д. Петросян и М. Сахно)
Файл
Формат: MKV
Качество: BDRip 720
Видео: MPEG-4 AVC, 4103 Кбит/с, 1280x544
Аудио 1: Русский (AC3, 6 ch, 448 Кбит/с) DVO (Д. Петросян и М. Сахно)
Аудио 2: Хинди (AC3, 6 ch, 640 Кбит/с) Original
Субтитры: Русские, английские
Семпл

MI

Общее
Уникальный идентификатор : 177071449156353883630938776665068834012 (0x8536B87AB97519D8BDE06E7C9FD28CDC)
Полное имя : E:Раздача-BDRipSarbdzhit.2016. BDRip 720p.mkv
Формат : Matroska
Версия формата : Version 2
Размер файла : 4,79 Гбайт
Продолжительность : 2 ч. 11 м.
Общий поток : 5195 Кбит/сек
Дата кодирования : UTC 2017-08-02 22:04:53
Программа кодирования : mkvmerge v5.8.0 ('No Sleep / Pillow') built on Sep 2 2012 15:37:04
Библиотека кодирования : libebml v1.2.3 + libmatroska v1.3.0
Видео
Идентификатор : 1
Формат : AVC
Формат/Информация : Advanced Video Codec
Профиль формата : High@L4.1
Параметр CABAC формата : Да
Параметр ReFrames формата : 12 кадров
Идентификатор кодека : V_MPEG4/ISO/AVC
Продолжительность : 2 ч. 11 м.
Битрейт : 4103 Кбит/сек
Ширина : 1280 пикселей
Высота : 544 пикселя
Соотношение сторон : 2,35:1
Режим частоты кадров : Постоянный
Частота кадров : 24,000 кадра/сек
Цветовое пространство : YUV
Субдискретизация насыщенности : 4:2:0
Битовая глубина : 8 бит
Тип развёртки : Прогрессивная
Бит/(Пиксели*Кадры) : 0.246
Размер потока : 3,69 Гбайт (77%)
Библиотека кодирования : x264 core 148 r2705 3f5ed56
Настройки программы : cabac=1 / ref=12 / deblock=1:0:0 / analyse=0x3:0x133 / me=umh / subme=9 / psy=1 / psy_rd=1.00:0.00 / mixed_ref=1 / me_range=16 / chroma_me=1 / trellis=2 / 8x8dct=1 / cqm=0 / deadzone=21,11 / fast_pskip=1 / chroma_qp_offset=-2 / threads=12 / lookahead_threads=1 / sliced_threads=0 / nr=0 / decimate=1 / interlaced=0 / bluray_compat=0 / constrained_intra=0 / bframes=3 / b_pyramid=2 / b_adapt=2 / b_bias=0 / direct=3 / weightb=1 / open_gop=0 / weightp=2 / keyint=230 / keyint_min=23 / scenecut=40 / intra_refresh=0 / rc_lookahead=60 / rc=2pass / mbtree=1 / bitrate=4103 / ratetol=1.0 / qcomp=0.60 / qpmin=0 / qpmax=69 / qpstep=4 / cplxblur=20.0 / qblur=0.5 / vbv_maxrate=24000 / vbv_bufsize=24000 / nal_hrd=none / filler=0 / ip_ratio=1.40 / aq=1:1.00
Язык : English
Default : Да
Forced : Нет
Основные цвета : BT.709
Характеристики трансфера : BT.709
Коэффициенты матрицы : BT.709
Аудио #1
Идентификатор : 2
Формат : AC-3
Формат/Информация : Audio Coding 3
Расширение режима : CM (complete main)
Параметр Endianness формата : Big
Идентификатор кодека : A_AC3
Продолжительность : 2 ч. 11 м.
Вид битрейта : Постоянный
Битрейт : 448 Кбит/сек
Каналы : 6 каналов
Расположение каналов : Front: L C R, Side: L R, LFE
Частота : 48,0 КГц
Битовая глубина : 16 бит
Метод сжатия : С потерями
Размер потока : 423 Мбайт (9%)
Заголовок : DVO (Д. Петросян и М. Сахно)
Язык : Russian
Default : Да
Forced : Да
Аудио #2
Идентификатор : 3
Формат : AC-3
Формат/Информация : Audio Coding 3
Расширение режима : CM (complete main)
Параметр Endianness формата : Big
Идентификатор кодека : A_AC3
Продолжительность : 2 ч. 11 м.
Вид битрейта : Постоянный
Битрейт : 640 Кбит/сек
Каналы : 6 каналов
Расположение каналов : Front: L C R, Side: L R, LFE
Частота : 48,0 КГц
Битовая глубина : 16 бит
Метод сжатия : С потерями
Размер потока : 604 Мбайт (12%)
Заголовок : Original
Язык : Hindi
Default : Нет
Forced : Нет
Текст #1
Идентификатор : 4
Формат : ASS
Идентификатор кодека : S_TEXT/ASS
Идентификатор кодека/Информация : Advanced Sub Station Alpha
Метод сжатия : Без потерь
Заголовок : На песни
Язык : Russian
Default : Да
Forced : Нет
Текст #2
Идентификатор : 5
Формат : UTF-8
Идентификатор кодека : S_TEXT/UTF8
Идентификатор кодека/Информация : UTF-8 Plain Text
Язык : Russian
Default : Нет
Forced : Нет
Текст #3
Идентификатор : 6
Формат : UTF-8
Идентификатор кодека : S_TEXT/UTF8
Идентификатор кодека/Информация : UTF-8 Plain Text
Язык : English
Default : Нет
Forced : Нет
Меню
00:00:00.000 : en:00:00:00.000
00:03:20.500 : en:00:03:20.500
00:05:40.417 : en:00:05:40.417
00:09:16.875 : en:00:09:16.875
00:12:30.958 : en:00:12:30.958
00:14:28.000 : en:00:14:28.000
00:19:15.792 : en:00:19:15.792
00:27:21.500 : en:00:27:21.500
00:30:09.625 : en:00:30:09.625
00:34:54.958 : en:00:34:54.958
00:37:36.000 : en:00:37:36.000
00:39:23.542 : en:00:39:23.542
00:45:22.208 : en:00:45:22.208
00:50:53.000 : en:00:50:53.000
01:01:09.250 : en:01:01:09.250
01:04:43.042 : en:01:04:43.042
01:20:08.792 : en:01:20:08.792
01:26:19.625 : en:01:26:19.625
01:28:31.292 : en:01:28:31.292
01:30:57.958 : en:01:30:57.958
01:44:33.583 : en:01:44:33.583
01:48:27.125 : en:01:48:27.125
01:52:42.583 : en:01:52:42.583
02:08:27.375 : en:02:08:27.375

О релизе

Озвучка: Давид Петросян и Маргарита Сахно
Перевод и редакция: ❖ Honey&Haseena ❖
Субтитры: Русские (на песни), русские, английские

Скриншоты

[Профиль] [ЛС]
Кто просматривает тему:

Форум Тема Автор Размер
Индийское кино Сарбджит / Sarbjit (2016) WEB-DLRip 720p | L2 достали все 3 GB
Показать сообщения:    

Текущее время: Сегодня 05:54

Часовой пояс: GMT



Вы не можете начинать темы
Вы не можете отвечать на сообщения
Вы не можете редактировать свои сообщения
Вы не можете удалять свои сообщения
Вы не можете голосовать в опросах
Вы не можете прикреплять файлы к сообщениям
Вы не можете скачивать файлы