Саранча (2013) WEB-DL 720p | iTunes

 
Автор Сообщение

достали все ®

Пол:

Стаж: 1 год 8 месяцев

Сообщений: 6527



Награды: 12 (Подробнее)

Mega Releaser 3 (Количество: 1) Mega Seeder 3 (Количество: 1) Mega Releaser 2 (Количество: 1)
Торрент-статистика

Создавать темы 17-Дек-2015 10:35

[Цитировать]

Информация о фильме
Название: Саранча
Оригинальное название: Саранча
Год выхода: 2013
Жанр: триллер
Режиссер: Егор Баранов
В ролях: Пётр Фёдоров, Паулина Андреева, Дмитрий Шевченко, Екатерина Волкова, Евгения Дмитриева, Максим Пинскер, Алексей Горбунов, Евгений Стычкин, Александр Голубков, Иван Щенин
О фильме: У них не было ничего общего: Артем — простой парень из провинции, работяга и поэт, Лера — столичная штучка, чью жизнь распланировали родители. Но банальный курортный роман оборачивается обжигающей страстью, которая ломает судьбы. И хотя Лера выходит замуж за друга отца, а Артем назло женится на богатой даме постарше, их безумное влечение рушит все барьеры. Жажда плоти невыносима, и для приговоренных друг к другу любовников уже не существует ни правил, ни опасности, ни страха. И когда разрушительная страсть обагряется кровью, они уже не в силах остановиться…

Выпущено: Россия
Продолжительность: 02:03:33
Озвучивание: Оригинальное [iTunes]
Файл
Формат: MKV
Качество: WEB-DL 720p
Видео: MPEG-4 AVC, 3955 kb/s, 1280x536
Аудио: AC3, 384 kb/s (6 ch)

MI

Format : Matroska
Format version : Version 2
File size : 3.82 GiB
Duration : 2h 3mn
Overall bit rate : 4 427 Kbps
Encoded date : UTC 2015-12-17 07:56:30
Writing application : mkvmerge v8.3.0 ('Over the Horizon') 64bit
Writing library : libebml v1.3.1 + libmatroska v1.4.2
DURATION : 02:03:33.056000000
NUMBER_OF_FRAMES : 231658
NUMBER_OF_BYTES : 355826688
_STATISTICS_WRITING_APP : mkvmerge v8.3.0 ('Over the Horizon') 64bit
_STATISTICS_WRITING_DATE_UTC : 2015-12-17 07:56:30
_STATISTICS_TAGS : BPS DURATION NUMBER_OF_FRAMES NUMBER_OF_BYTES
Video
ID : 1
Format : AVC
Format/Info : Advanced Video Codec
Format profile : Main@L3.1
Format settings, CABAC : No
Format settings, ReFrames : 2 frames
Codec ID : V_MPEG4/ISO/AVC
Duration : 2h 3mn
Bit rate : 3 955 Kbps
Width : 1 280 pixels
Height : 536 pixels
Display aspect ratio : 2.40:1
Frame rate mode : Constant
Frame rate : 24.000 fps
Color space : YUV
Chroma subsampling : 4:2:0
Bit depth : 8 bits
Scan type : Progressive
Bits/(Pixel*Frame) : 0.240
Stream size : 3.41 GiB (89%)
Language : English
Default : Yes
Forced : No
Color range : Limited
Color primaries : BT.709
Transfer characteristics : BT.709
Matrix coefficients : BT.709
Audio
ID : 2
Format : AC-3
Format/Info : Audio Coding 3
Mode extension : CM (complete main)
Format settings, Endianness : Big
Codec ID : A_AC3
Duration : 2h 3mn
Bit rate mode : Constant
Bit rate : 384 Kbps
Channel(s) : 6 channels
Channel positions : Front: L C R, Side: L R, LFE
Sampling rate : 48.0 KHz
Bit depth : 16 bits
Compression mode : Lossy
Stream size : 339 MiB (9%)
Language : Russian
Default : Yes
Forced : No
Menu
00:00:00.000 : en:Глава 1
00:05:35.000 : en:Глава 2
00:13:35.000 : en:Глава 3
00:20:30.000 : en:Глава 4
00:26:00.000 : en:Глава 5
00:31:57.000 : en:Глава 6
00:38:19.000 : en:Глава 7
00:45:44.000 : en:Глава 8
00:51:11.000 : en:Глава 9
00:56:54.000 : en:Глава 10
01:02:43.000 : en:Глава 11
01:08:24.000 : en:Глава 12
01:15:23.000 : en:Глава 13
01:20:26.000 : en:Глава 14
01:26:56.000 : en:Глава 15
01:33:15.000 : en:Глава 16
01:39:10.000 : en:Глава 17
01:45:26.000 : en:Глава 18
01:52:37.000 : en:Глава 19
01:58:55.000 : en:Глава 20

Скриншоты

[Профиль] [ЛС]
Показать сообщения:    

Текущее время: Сегодня 02:16

Часовой пояс: GMT



Вы не можете начинать темы
Вы не можете отвечать на сообщения
Вы не можете редактировать свои сообщения
Вы не можете удалять свои сообщения
Вы не можете голосовать в опросах
Вы не можете прикреплять файлы к сообщениям
Вы не можете скачивать файлы