Санта Клаус 3: Хозяин полюса / Santa Clause 3: Escape Clause (Майкл Лембек / Michael Lembeck) [2006, США, Комедия, семейный, фэнтези, DVDRip] Sub Rus + Original Eng

 
Автор Сообщение

TorrentFilm ®

Пол:

Стаж: 2 года

Сообщений: 7741



Награды: Нет

Торрент-статистика

Создавать темы 08-Янв-2016 00:09

[Цитировать]

Санта Клаус 3: Хозяин полюса / Santa Clause 3: Escape Clause
Страна: США
Жанр: Комедия, семейный, фэнтэзи
Год выпуска: 2006
Продолжительность: 01:27:54
Перевод: Субтитры
Cубтитры: русские
Оригинальная аудиодорожка: английский
Режиссер: Майкл Лембек / Michael Lembeck
В ролях: Тим Аллен, Элизабет Митчелл, Эрик Ллойд, Джадж Рейнхольд, Венди Крюсон, Спенсер Бреслин, Лилиана Мами, Мартин Шорт
Описание: Рискуя выдать тайну Северного полюса, Скотт Кэлвин (Тим Аллен), а по совместительству Санта-Клаус, приглашает своих родственников (Энн - Маргрет и Алан Аркин) отпраздновать Рождество, а заодно и предстоящее появление на свет сына Клауса, которого вот - вот должна родить его жена Кэрол (Элизабет Митчелл). В итоге Скотт вместе с его большим семейством и главным эльфом Кертисом (Спенсер Бреслин) вынужден противостоять коварному злодею Джеку Фросту (Мартин Шорт), который намеревается отобрать Рождество у Санта - Клауса и захватить власть на Северном полюсе…
Сэмпл: http://sendfile.su/1187041
Качество видео: DVDRip
Формат видео: AVI
Видео: XviD, 576:304 pix, 1 113 Kbps
Аудио: MPEG Audio, 128 Kbps, 2 channels
Формат субтитров: softsub (SRT)

MediaInfo

Format : AVI
Format/Info : Audio Video Interleave
File size : 700 MiB
Duration : 1h 27mn
Overall bit rate mode : Variable
Overall bit rate : 1 113 Kbps
Writing application : VirtualDubMod 1.5.10.2 (build 2540/release)
Writing library : VirtualDubMod build 2540/release
Video
ID : 0
Format : MPEG-4 Visual
Format profile : Advanced Simple@L5
Format settings, BVOP : 3
Format settings, QPel : No
Format settings, GMC : No warppoints
Format settings, Matrix : Default (MPEG)
Codec ID : XVID
Codec ID/Hint : XviD
Duration : 1h 27mn
Bit rate : 974 Kbps
Width : 576 pixels
Height : 304 pixels
Display aspect ratio : 1.895
Frame rate : 25.000 fps
Color space : YUV
Chroma subsampling : 4:2:0
Bit depth : 8 bits
Scan type : Progressive
Compression mode : Lossy
Bits/(Pixel*Frame) : 0.222
Stream size : 612 MiB (87%)
Writing library : XviD 1.1.2 (UTC 2006-11-01)
Audio
ID : 1
Format : MPEG Audio
Format version : Version 1
Format profile : Layer 3
Mode : Joint stereo
Mode extension : MS Stereo
Codec ID : 55
Codec ID/Hint : MP3
Duration : 1h 27mn
Bit rate mode : Variable
Bit rate : 128 Kbps
Channel(s) : 2 channels
Sampling rate : 48.0 KHz
Compression mode : Lossy
Delay relative to video : 528ms
Stream size : 79.7 MiB (11%)
Alignment : Split accross interleaves
Interleave, duration : 24 ms (0.60 video frame)
Interleave, preload duration : 1528 ms
Writing library : LAME3.90.
Encoding settings : -m j -V 4 -q 2 -lowpass 17.6 --abr 128

Скриншоты

Пример субтитров

на Северный Полюс?
15
00:01:35,227 --> 00:01:38,105
Еще как было.
16
00:01:38,187 --> 00:01:40,701
Но потом случилось нечто
поразительное...
17
00:01:40,787 --> 00:01:42,857
...и оно сильно изменило
нас с Сантой.
18
00:01:42,947 --> 00:01:44,346
А что именно?
19
00:01:46,627 --> 00:01:47,980
Ну, слушайте.
20
00:01:48,067 --> 00:01:49,785
Малыш Клаус на подходе!
21
00:01:49,867 --> 00:01:52,825
Дамы, живее! Нужна горячая
вода, а также кипящее масло!
22
00:01:52,907 --> 00:01:55,102
Спокойно! Думай о леденцах
и пряниках! Без паники!
23
00:01:55,187 --> 00:01:56,745
Без паники!
24
00:01:56,827 --> 00:01:59,899
- Кертис, роды начались!
- Шоко, роды начались!
25
00:01:59,987 --> 00:02:02,740
- Миссис, роды начались!
- Я в курсе!
26
00:02:10,867 --> 00:02:12,095
Дыши! Дыши!
27
00:02:13,027 --> 00:02:14,824
Синяк будет!
28
00:02:26,267 --> 00:02:27,620
ЭЛЬФОСПИТАЛЬ
29
00:02:27,707 --> 00:02:28,856
Толкайте!
30
00:02:33,507 --> 00:02:35,463
Ох.
31
00:02:35,547 --> 00:02:38,015
- Ох, Скотт.
- Все будет хорошо, родная.
[Профиль] [ЛС]
Показать сообщения:    

Текущее время: Сегодня 14:36

Часовой пояс: GMT



Вы не можете начинать темы
Вы не можете отвечать на сообщения
Вы не можете редактировать свои сообщения
Вы не можете удалять свои сообщения
Вы не можете голосовать в опросах
Вы не можете прикреплять файлы к сообщениям
Вы не можете скачивать файлы