Самый удобный, самый прочный, самый красивый домик (Эльвира Авякян) [1983, Рисованный мультфильм, DVDRip] Арменфильм

 
Автор Сообщение

painkiller ®

Стаж: 2 года 3 месяца

Сообщений: 582



Награды: Нет

Торрент-статистика

Создавать темы 27-Авг-2014 15:29

[Цитировать]

Самый удобный, самый прочный, самый красивый домик
Страна: СССР
Жанр: Рисованный мультфильм
Продолжительность: 00:09:30
Год выпуска: 1983
Русские субтитры: нет
Режиссёр: Эльвира Авякян
Описание: Мультипликационный фильм для детей о том, что домики зверей должны быть красивыми, удобными и прочными.
Доп. информация: «Арменфильм»
Композитор: Р.Ратунян
Сценарист: В.Григорян
художник-постановщик: С.Айвазян
Качество: DVDRip
Формат: AVI
Видео: 704x528 (1.33:1), 25 fps, XviD build 50 ~1875 kbps avg, 0.20 bit/pixel
Аудио: 44.100 kHz, AC3 Dolby Digital, 2/0 (L,R) ch, ~192.00 kbps avg
Субтитры: нет

Подробные технические данные

Формат : AVIФормат/Информация : Audio Video InterleaveРазмер файла : 141 МбайтПродолжительность : 9 м. 30 с.Общий поток : 2075 Кбит/секПрограмма кодирования : VirtualDubMod 1.5.10.2 (build 2540/release)Библиотека кодирования : VirtualDubMod build 2540/release
ВидеоИдентификатор : 0Формат : MPEG-4 VisualПрофиль формата : Simple@L3Параметр BVOP формата : НетПараметр QPel формата : НетПараметр GMC формата : Без точки переходаПараметр матрицы формата : Default (H.263)Идентификатор кодека : XVIDИдентификатор кодека/Подсказка : XviDПродолжительность : 9 м. 30 с.Битрейт : 1875 Кбит/секШирина : 704 пикс.Высота : 528 пикс.Соотношение сторон : 4:3Частота кадров : 25,000 кадр/секЦветовое пространство : YUVПодвыборка цветности : 4:2:0Битовая глубина : 8 битТип развёртки : ПрогрессивнаяМетод сжатия : С потерямиБит/(Пиксели*Кадры) : 0.202Размер потока : 127 Мбайт (90%)Библиотека кодирования : XviD 1.2.1 (UTC 2008-12-04)
АудиоИдентификатор : 1Формат : AC-3Формат/Информация : Audio Coding 3Расширение режима : CM (complete main)Идентификатор кодека : 2000Продолжительность : 9 м. 30 с.Вид битрейта : ПостоянныйБитрейт : 192 Кбит/секКанал(ы) : 2 канала(ов)Расположение каналов : Front: L RЧастота : 44,1 КГцБитовая глубина : 16 битМетод сжатия : С потерямиРазмер потока : 13,0 Мбайт (9%)Выравнивание : Разделение по промежуткамПродолжительность промежутка : 64 мс. (1,60 видеокадров)Время предзагрузки промежутка : 512 ms

Скриншоты

[Профиль] [ЛС]
Показать сообщения:    

Текущее время: Сегодня 14:27

Часовой пояс: GMT



Вы не можете начинать темы
Вы не можете отвечать на сообщения
Вы не можете редактировать свои сообщения
Вы не можете удалять свои сообщения
Вы не можете голосовать в опросах
Вы не можете прикреплять файлы к сообщениям
Вы не можете скачивать файлы