Самый страшный фильм 3Д / Dead Before Dawn 3D (Эйприл Маллен / April Mullen) [2012, ужасы, комедия, приключения, BDRip-AVC] Half SideBySide / Горизонтальная анаморфная стереопара

 
Автор Сообщение

TorrentFilm ®

Пол:

Стаж: 2 года

Сообщений: 7741



Награды: Нет

Торрент-статистика

Создавать темы 02-Янв-2016 00:04

[Цитировать]

Самый страшный фильм 3D
Dead Before Dawn 3D
- Год выпуска: 2012
Страна: Канада
Студия: Wango Films
Жанр: ужасы, комедия, приключения
Продолжительность: 01:28:23
Перевод: профессиональный (дублированный)
Русские субтитры: нет
Режиссер: Эйприл Маллен / April Mullen
В ролях: Девон Бостик, Кристофер Ллойд, Марта МакАйсак, Брэндон Джей МакЛарен, Бриттани Аллен, Эйприл Маллен, Тим Дойрон, Кевин МакДональд, Эллен Дубин, Кайл Шмид
Описание:
Комедийная пародия на фильмы о зомби. Оставшись за главного в лавке древностей, принадлежащей его деду, Каспер, и его друзья по колледжу, случайно разбивают старинный артефакт и обрушивают себе на голову древнее проклятье. Теперь, стоит им только взглянуть на кого-нибудь, как тот убивает себя, а потом воскресает зомбаком! Пока друзья разбирались в чем тут дело, половина города успела превратится в зомби. Зомбаками стали даже ребята из сборной колледжа по футболу и девчонки из группы поддержки. Теперь друзьям необходимо срочно найти способ снять проклятье. Но это будет нелегко...-Доп. информация: Дубляж на DVD9 оказался дутым. Речь во всех каналах, кроме LFE, который вообще пустой. Скриншот [ ©Тарантиныч ]--Проверено на встроенном плейере ТВ Samsung UE-D7000 --Качество: BDrip
Контейнер: MKV
Формат 3D: Half SideBySide / Горизонтальная анаморфная стереопара
Порядок ракурсов: левый ракурс первый
Видео кодек: x264
Видео: AVC / 1920x1080p / 23.976fps / 11700 kbps
Аудио 1: Русский / AC3 / 48000Hz / 2.0 ch / 192 Kbps
Аудио 2: Английский / AC3 / 48000Hz / 5.1 ch / 640 Kbps
Субтитры: нет

MediaInfo

General
Unique ID : 251812413110801883313832253229039357304 (0xBD714E82708928B2B2AA5E0F3C340D78)
Complete name : Dead.Before.Dawn.3D.2012.BD3Drip.HSBS.x264.RusDub.DD2.0.Eng.AC3.mkv
Format : Matroska
Format version : Version 2
File size : 7.91 GiB
Duration : 1h 28mn
Overall bit rate : 12.8 Mbps
Encoded date : UTC 2013-05-09 13:47:03
Writing application : mkvmerge v3.4.0 ('Rapunzel') сборка от May 15 2010 09:38:20
Writing library : libebml v0.8.0 + libmatroska v0.9.0
Video
ID : 1
Format : AVC
Format/Info : Advanced Video Codec
Format profile : High@L4.1
MultiView_Count : 2
MultiView_Layout : Right Eye
Format settings, CABAC : Yes
Format settings, ReFrames : 4 frames
Codec ID : V_MPEG4/ISO/AVC
Duration : 1h 28mn
Bit rate : 11.7 Mbps
Width : 1 920 pixels
Height : 1 080 pixels
Display aspect ratio : 16:9
Frame rate mode : Constant
Frame rate : 23.976 fps
Color space : YUV
Chroma subsampling : 4:2:0
Bit depth : 8 bits
Scan type : Progressive
Bits/(Pixel*Frame) : 0.236
Stream size : 7.24 GiB (92%)
Title : Dead Before Dawn 3D (2012)
Writing library : x264 core 132 r2310 76a5c3a
Encoding settings : cabac=1 / ref=4 / deblock=1:-3:-3 / analyse=0x3:0x113 / me=umh / subme=10 / psy=1 / psy_rd=1.00:0.15 / mixed_ref=1 / me_range=32 / chroma_me=1 / trellis=2 / 8x8dct=1 / cqm=0 / deadzone=21,11 / fast_pskip=1 / chroma_qp_offset=-3 / threads=12 / lookahead_threads=1 / sliced_threads=0 / nr=0 / decimate=1 / interlaced=0 / bluray_compat=0 / constrained_intra=0 / bframes=6 / b_pyramid=2 / b_adapt=1 / b_bias=0 / direct=3 / weightb=1 / open_gop=0 / weightp=2 / keyint=250 / keyint_min=23 / scenecut=40 / intra_refresh=0 / rc_lookahead=40 / rc=crf / mbtree=1 / crf=16.0 / qcomp=0.60 / qpmin=10 / qpmax=69 / qpstep=4 / vbv_maxrate=40000 / vbv_bufsize=30000 / crf_max=0.0 / nal_hrd=none / ip_ratio=1.40 / aq=1:1.00
Default : No
Forced : No
Audio #1
ID : 2
Format : AC-3
Format/Info : Audio Coding 3
Mode extension : CM (complete main)
Format settings, Endianness : Big
Codec ID : A_AC3
Duration : 1h 28mn
Bit rate mode : Constant
Bit rate : 192 Kbps
Channel(s) : 2 channels
Channel positions : Front: L R
Sampling rate : 48.0 KHz
Bit depth : 16 bits
Compression mode : Lossy
Stream size : 121 MiB (1%)
Title : Дубляж DD 2.0 @ 192 kbps
Language : Russian
Default : Yes
Forced : No
Audio #2
ID : 3
Format : AC-3
Format/Info : Audio Coding 3
Mode extension : CM (complete main)
Format settings, Endianness : Big
Codec ID : A_AC3
Duration : 1h 28mn
Bit rate mode : Constant
Bit rate : 640 Kbps
Channel(s) : 6 channels
Channel positions : Front: L C R, Side: L R, LFE
Sampling rate : 48.0 KHz
Bit depth : 16 bits
Compression mode : Lossy
Stream size : 405 MiB (5%)
Title : Original
Language : English
Default : No
Forced : No
Menu
00:00:00.000 : en:00:00:00.000
00:08:50.697 : en:00:08:50.697
00:15:19.043 : en:00:15:19.043
00:22:06.200 : en:00:22:06.200
00:31:10.744 : en:00:31:10.744
00:37:01.845 : en:00:37:01.845
00:45:15.588 : en:00:45:15.588
00:53:04.515 : en:00:53:04.515
00:59:42.621 : en:00:59:42.621
01:05:38.726 : en:01:05:38.726
01:13:47.923 : en:01:13:47.923
01:20:29.825 : en:01:20:29.825
Спасибо за рип z-man и HDWing
[Профиль] [ЛС]
Показать сообщения:    

Текущее время: Сегодня 02:15

Часовой пояс: GMT



Вы не можете начинать темы
Вы не можете отвечать на сообщения
Вы не можете редактировать свои сообщения
Вы не можете удалять свои сообщения
Вы не можете голосовать в опросах
Вы не можете прикреплять файлы к сообщениям
Вы не можете скачивать файлы