Самый разрушительный тайфун / Megastorm: World\'s Biggest Typhoon (Питер Баркер / Peter Barker, Ники Болстер / Nicky Bolster, Бэкки Ли / Becky Lee) [2013, Документальный, HDTVRip]

 
Автор Сообщение

reversefile ®

Пол:

Стаж: 4 года 5 месяцев

Сообщений: 842

Откуда: ReverseFile.org



Награды: Нет

Торрент-статистика

Создавать темы 24-Июл-2014 17:55

[Цитировать]

Самый разрушительный тайфун / Megastorm: World's Biggest Typhoon
Год выпуска: 2013
Страна: Великобритания
Жанр: Документальный
Продолжительность: 00:43:31
Перевод: Студийный (одноголосый закадровый)
Русские субтитры: нет
Режиссер: Питер Баркер / Peter Barker, Ники Болстер / Nicky Bolster, Бэкки Ли / Becky Lee
Описание: Тщательный анализ самого страшного и разрушительного тайфуна в истории, обрушившегося на Филиппины в ноябре 2013. Истории реальных людей, эксклюзивные видеозаписи и научное объяснение катастрофы....
Релиз: mcisco
качество: HDTVRip
формат: AVI
Видео: XviD, 704x400, 16:9, 1730 Kbps, 25fps
Аудио: AC3, 192 kbps, 48.0 KHz, 2 ch

MediaInfo

Общее
Полное имя : D:\KINO\Megastorm.Worlds.Biggest.Typhoon.2013.XviD.HDTVRip.avi
Формат : AVI
Формат/Информация : Audio Video Interleave
Размер файла : 601 Мбайт
Продолжительность : 43 м.
Общий поток : 1932 Кбит/сек
Программа кодирования : VirtualDubMod 1.5.10.2 (build 2540/release)
Библиотека кодирования : VirtualDubMod build 2540/release
Видео
Идентификатор : 0
Формат : MPEG-4 Visual
Профиль формата : Advanced Simple@L5
Параметр BVOP формата : 2
Параметр QPel формата : Нет
Параметр GMC формата : Без точки перехода
Параметр матрицы формата : Default (H.263)
Режим смешивания : Сжатый битовый поток
Идентификатор кодека : XVID
Идентификатор кодека/Подсказка : XviD
Продолжительность : 43 м.
Битрейт : 1731 Кбит/сек
Ширина : 704 пикселя
Высота : 400 пикселей
Соотношение сторон : 16:9
Частота кадров : 25,000 кадров/сек
Цветовое пространство : YUV
Субдискретизация насыщенности : 4:2:0
Битовая глубина : 8 бит
Тип развёртки : Прогрессивная
Метод сжатия : С потерями
Бит/(Пиксели*Кадры) : 0.246
Размер потока : 539 Мбайт (90%)
Библиотека кодирования : XviD 64
Аудио
Идентификатор : 1
Формат : AC-3
Формат/Информация : Audio Coding 3
Расширение режима : CM (complete main)
Параметр Endianness формата : Big
Идентификатор кодека : 2000
Продолжительность : 43 м.
Вид битрейта : Постоянный
Битрейт : 192 Кбит/сек
Каналы : 2 канала
Расположение каналов : Front: L R
Частота : 48,0 КГц
Битовая глубина : 16 бит
Метод сжатия : С потерями
Размер потока : 59,7 Мбайт (10%)
Выравнивание : Разделение по промежуткам
Продолжительность промежутка : 40 мс. (1,00 видеокадр)
Время предзагрузки промежутка : 500 мс.

Скриншоты


[Профиль] [ЛС]
Показать сообщения:    

Текущее время: Сегодня 08:30

Часовой пояс: GMT



Вы не можете начинать темы
Вы не можете отвечать на сообщения
Вы не можете редактировать свои сообщения
Вы не можете удалять свои сообщения
Вы не можете голосовать в опросах
Вы не можете прикреплять файлы к сообщениям
Вы не можете скачивать файлы