Самый пьяный округ в мире / Lawless (Джон Хиллкоут) [2012 г., драма, криминал, HDRip-AVC] [DUB]

 
Автор Сообщение

Bathory ®

Пол:

Стаж: 1 год 9 месяцев

Сообщений: 320



Награды: 3 (Подробнее)

За внесенный вклад в развитие сайта (Количество: 1) Друг (Количество: 1) Girls (Количество: 1)
Торрент-статистика

Создавать темы 28-Июл-2017 23:22

[Цитировать]

Самый пьяный округ в мире / Lawless - Информация о фильме
Название: Самый пьяный округ в мире
Оригинальное название: Lawless
Год выхода: 2012
Жанр: драма, криминал
Режиссер: Джон Хиллкоут
В ролях: Шайа ЛаБаф, Том Харди, Джейсон Кларк, Джессика Честейн, Гай Пирс, Миа Васиковска, Дэйн ДеХаан, Гари Олдман, Крис МакГарри, Лью Темпл
О фильме:
Действие в картине разворачивается на американском Юге во времена сухого закона и Великой Депрессии. В центре сюжета — семья Бондурант, три брата, Джек, Форрест и Говард, которые занимаются запрещенным в то время бизнесом, бутлегерством.
Оптимистично настроенный Джек, самый молодой из братьев, надеется с помощью бутлегерства заработать денег и произвести впечатление на свою девушку Берту. В это же время Форрест, напротив, настроен очень мрачно, он молчалив и подозрителен, а Говарду к тому же часто приходится иметь дело с врагами незаконного семейного бизнеса, в лице которых выступают коррумпированные местные полицейские.

Страна: США
Студия: Weinstein Company, The, Yucaipa Films, Revolt Films
Продолжительность: 01:55:45
Перевод: Дубляж
Файл
Кодек: AVC
Качество: HDRip-AVC
Видео: 728x304, 834 kbps, 23,976 fps, 0,157 Bits/(Pixel*Frame)
Звук: AAC, 48 kHz, 2 ch, 64 kbps
Субтитры: русские [Voronine, ord666, Bilingual, SDH [Bilingual]

MI

Общее
Unique ID : 188677859969500801331978879323310929675 (0x8DF208B6923E0D68B48128D544D8370B)
Complete name : E:\Lawless.2012.HDRip-AVC.744mb.MegaPeer.mkv
Format : Matroska
Format version : Version 4 / Version 2
File size : 745 Мбайт
Duration : 1 ч. 55 м.
Overall bit rate : 899 Кбит/сек
Movie name : Lawless (2012) by HDMaNiAcS
Encoded date : UTC 2017-07-28 22:34:46
Writing application : mkvmerge v14.0.0 ('Flow') 64bit
Writing library : libebml v1.3.4 + libmatroska v1.4.5
Видео
ID : 1
Format : AVC
Format/Info : Advanced Video Codec
Format profile : High@L4.1
Format settings, CABAC : Да
Format settings, ReFrames : 12 кадров
Codec ID : V_MPEG4/ISO/AVC
Duration : 1 ч. 55 м.
Bit rate : 834 Кбит/сек
Width : 728 пикселей
Height : 304 пикселя
Display aspect ratio : 2,40:1
Frame rate mode : Постоянный
Frame rate : 23,976 (24000/1001) кадра/сек
Color space : YUV
Chroma subsampling : 4:2:0
Bit depth : 8 бит
Scan type : Прогрессивная
Bits/(Pixel*Frame) : 0.157
Stream size : 690 Мбайт (93%)
Writing library : x264 core 152 r2851 ba24899
Encoding settings : cabac=1 / ref=12 / deblock=1:-1:-1 / analyse=0x3:0x133 / me=umh / subme=11 / psy=1 / psy_rd=1.05:0.15 / mixed_ref=1 / me_range=32 / chroma_me=1 / trellis=2 / 8x8dct=1 / cqm=0 / deadzone=21,11 / fast_pskip=0 / chroma_qp_offset=-3 / threads=9 / lookahead_threads=2 / sliced_threads=0 / nr=0 / decimate=0 / interlaced=0 / bluray_compat=0 / constrained_intra=0 / bframes=14 / b_pyramid=2 / b_adapt=2 / b_bias=0 / direct=3 / weightb=1 / open_gop=0 / weightp=2 / keyint=230 / keyint_min=22 / scenecut=0 / intra_refresh=0 / rc_lookahead=60 / rc=2pass / mbtree=1 / bitrate=834 / ratetol=1.0 / qcomp=0.60 / qpmin=0 / qpmax=51 / qpstep=4 / cplxblur=15.0 / qblur=0.5 / vbv_maxrate=50000 / vbv_bufsize=62500 / nal_hrd=none / filler=0 / ip_ratio=1.40 / aq=2:1.00
Default : Да
Forced : Нет
Аудио
ID : 2
Format : AAC
Format/Info : Advanced Audio Codec
Format profile : HE-AAC / LC
Codec ID : A_AAC
Duration : 1 ч. 55 м.
Bit rate : 63,8 Кбит/сек
Channel(s) : 2 канала
Channel positions : Front: L R
Sampling rate : 48,0 КГц / 24,0 КГц
Frame rate : 23,438 кадра/сек (1024 spf)
Compression mode : С потерями
Delay relative to video : 31 мс.
Stream size : 52,9 Мбайт (7%)
Language : Russian
Default : Да
Forced : Нет
Текст #1
ID : 3
Format : UTF-8
Codec ID : S_TEXT/UTF8
Codec ID/Info : UTF-8 Plain Text
Duration : 1 ч. 49 м.
Bit rate : 69 бит/сек
Count of elements : 1047
Stream size : 55,8 Кбайт (0%)
Title : Full [Voronine]
Language : Russian
Default : Нет
Forced : Нет
Текст #2
ID : 4
Format : UTF-8
Codec ID : S_TEXT/UTF8
Codec ID/Info : UTF-8 Plain Text
Duration : 1 ч. 48 м.
Bit rate : 70 бит/сек
Count of elements : 1031
Stream size : 55,8 Кбайт (0%)
Title : Full [lord666]
Language : Russian
Default : Нет
Forced : Нет
Текст #3
ID : 5
Format : UTF-8
Codec ID : S_TEXT/UTF8
Codec ID/Info : UTF-8 Plain Text
Duration : 1 ч. 48 м.
Bit rate : 72 бит/сек
Count of elements : 1037
Stream size : 57,3 Кбайт (0%)
Title : Full [Bilingual]
Language : Russian
Default : Нет
Forced : Нет
Текст #4
ID : 6
Format : UTF-8
Codec ID : S_TEXT/UTF8
Codec ID/Info : UTF-8 Plain Text
Duration : 1 ч. 48 м.
Bit rate : 85 бит/сек
Count of elements : 1238
Stream size : 67,9 Кбайт (0%)
Title : SDH [Bilingual]
Language : Russian
Default : Нет
Forced : Нет
Меню
00:00:00.000 : en:00:00:00.000
00:04:36.818 : en:00:04:36.818
00:09:16.639 : en:00:09:16.639
00:14:39.587 : en:00:14:39.587
00:21:55.689 : en:00:21:55.689
00:26:34.343 : en:00:26:34.343
00:34:23.895 : en:00:34:23.895
00:41:06.964 : en:00:41:06.964
00:48:30.825 : en:00:48:30.825
00:56:45.652 : en:00:56:45.652
01:05:11.074 : en:01:05:11.074
01:11:21.903 : en:01:11:21.903
01:19:30.724 : en:01:19:30.724
01:25:00.887 : en:01:25:00.887
01:31:49.838 : en:01:31:49.838
01:37:32.889 : en:01:37:32.889
01:44:44.737 : en:01:44:44.737
01:49:07.708 : en:01:49:07.708

Скриншоты

Релиз:
[Профиль] [ЛС]
Показать сообщения:    

Текущее время: Сегодня 13:02

Часовой пояс: GMT



Вы не можете начинать темы
Вы не можете отвечать на сообщения
Вы не можете редактировать свои сообщения
Вы не можете удалять свои сообщения
Вы не можете голосовать в опросах
Вы не можете прикреплять файлы к сообщениям
Вы не можете скачивать файлы