Самый обычный мальчик / The boy (Крейг Макнил / Craig Macneill) [2015, США, драма, триллер, WEB-DLRip] Sub Rus + Original Eng

 
Автор Сообщение

TorrentFilm ®

Пол:

Стаж: 2 года

Сообщений: 7741



Награды: Нет

Торрент-статистика

Создавать темы 25-Авг-2015 00:11

[Цитировать]

Самый обычный мальчик / The boy
Страна: США
Жанр: драма, триллер
Год выпуска: 2015
Продолжительность: 01:50:31
Перевод: Субтитры (М.Васильев)
Cубтитры: русские
Оригинальная аудиодорожка: английский
Режиссер: Крейг Макнил / Craig Macneill
В ролях: Джаред Бриз, Дэвид Морс, Рэйн Уилсон, Майк Вогель, Эйден Лавкамп
Описание: Глухая американская провинция, 1989 год. В мотеле среди лесов и гор живут отец и сын. Семейный бизнес медленно, но верно идет ко дну. Отец слишком погружен в себя, чтобы уделять внимание 9-летнему ребенку и тот сам придумывает себе развлечения. С течением времени развлечения эти становятся все более странными...
Доп. информация: Фильм никуда не спешит. Режиссер явно пребывает в экстазе от возможности в течение 10 минут в полной тишине наблюдать за своими героями
Режиссер определил цель фильм просто: «Побольше внимания своим (и чужим детям), а то не заметите, как из самого обычного ребенка вырастет самый обычный маньяк».
Мнения критиков о фильме были полярные.
Рецензент влиятельной Variety написал, что «хотя авторы укокошили кучу народа, фильм все равно издевательски скучный и затянутый».
С ним не согласился не менее влиятельный Time, назвавший картину «таинственной, гипнотизирующей и пробуждающей фантазию».
Впрочем, все критики хвалили работу оператора и композитора (главную музыкальную тему фильма назвали «гениальной»), проводили параллели с творчеством раннего Стивена Кинга и вспоминали легендарный фильм «Кэрри» (1976)
Режиссер уже заявил, что у него планы на полноценную франшизу и вскоре последует продолжение, из которого мы узнаем о дальнейшей жизни главного героя.
Мотель, на территории которого происходит действие всего фильма, был полностью, «с нуля», построен специально для сьемок фильма. На это ушло 2 месяца.
Сэмпл
IMDB
КИНОПОИСК
Качество видео: WEB-DLRip
Формат видео: AVI
Видео: 1247 Kbps, 720x304 (2.35:1) 23 976 fps, MPEG 4 XviD
Аудио: 384 Kbps, 48.0 KHz, 16 bits, 6 ch, AC 3
Формат субтитров: softsub (SRT)

MediaInfo

General
Complete name : C:\Users\master\Documents\Downloads\The.Boy.2015.avi
Format : AVI
Format/Info : Audio Video Interleave
File size : 1.27 GiB
Duration : 1h 50mn
Overall bit rate : 1 641 Kbps
Writing library : VirtualDub build 35491/release
Video
ID : 0
Format : MPEG-4 Visual
Format profile : Advanced Simple@L5
Format settings, BVOP : 2
Format settings, QPel : No
Format settings, GMC : No warppoints
Format settings, Matrix : Default (H.263)
Codec ID : XVID
Codec ID/Hint : XviD
Duration : 1h 50mn
Bit rate : 1 247 Kbps
Width : 720 pixels
Height : 304 pixels
Display aspect ratio : 2.35:1
Frame rate : 23.976 fps
Color space : YUV
Chroma subsampling : 4:2:0
Bit depth : 8 bits
Scan type : Progressive
Compression mode : Lossy
Bits/(Pixel*Frame) : 0.238
Stream size : 986 MiB (76%)
Writing library : XviD 66
Audio
ID : 1
Format : AC-3
Format/Info : Audio Coding 3
Mode extension : CM (complete main)
Format settings, Endianness : Big
Codec ID : 2000
Duration : 1h 50mn
Bit rate mode : Constant
Bit rate : 384 Kbps
Channel(s) : 6 channels
Channel positions : Front: L C R, Side: L R, LFE
Sampling rate : 48.0 KHz
Bit depth : 16 bits
Compression mode : Lossy
Stream size : 304 MiB (23%)
Alignment : Aligned on interleaves
Interleave, duration : 42 ms (1.00 video frame)
Interleave, preload duration : 512 ms

Скриншот c названием фильма

Скриншоты








Титры

1
00:01:55,216 --> 00:01:57,483
Еще одного нашел...
2
00:01:57,485 --> 00:01:59,718
Выброси...
3
00:01:59,720 --> 00:02:01,887
Заплатишь мне?
4
00:02:02,989 --> 00:02:05,390
Ты знаешь,
где касса.
5
00:03:30,710 --> 00:03:32,911
Мотель "Горная дорога".
Что желаете?
6
00:03:34,548 --> 00:03:37,749
Номер стоит 22 доллара.
7
00:03:38,818 --> 00:03:41,253
Да, полотенца
входят в стоимость.
8
00:03:41,255 --> 00:03:45,924
А еще обогреватель.
9
00:06:11,070 --> 00:06:13,572
У нас был сложный
период...
10
00:06:15,341 --> 00:06:18,410
Но сейчас лето,
разгар сезона.
11
00:06:18,412 --> 00:06:23,982
К осени мы встанем на ноги...
12
00:06:23,984 --> 00:06:26,818
в сентябре я все выплачу,
обещаю...
13
00:06:26,820 --> 00:06:29,654
самое позднее,
в октябре.
14
00:06:33,926 --> 00:06:36,094
Пожалуйста,
ну, пожалуйста...
15
00:06:43,903 --> 00:06:46,772
Спасибо за звонок...
16
00:06:48,040 --> 00:06:49,975
Спасибо за понимание.
17
00:08:57,970 --> 00:09:00,272
Молодец.
18
00:10:49,115 --> 00:10:50,281
Еще один...
19
00:11:00,026 --> 00:11:03,028
Долговые обязательства
придется взять тебе...
20
00:11:04,263 --> 00:11:07,499
Ты здесь единственный,
кто зарабатывает деньги.
21
00:11:10,603 --> 00:11:15,674
Приберись
в номерах с 1 по 5.
22
00:11:15,676 --> 00:11:17,676
Постояльцев же нет!
23
00:11:17,678 --> 00:11:19,711
Покорми кур.
24
00:11:19,713 --> 00:11:21,546
И мешок с кормом
убери.
25
00:11:22,381 --> 00:11:24,049
Олени все сожрут.
[Профиль] [ЛС]
Показать сообщения:    

Текущее время: Сегодня 10:07

Часовой пояс: GMT



Вы не можете начинать темы
Вы не можете отвечать на сообщения
Вы не можете редактировать свои сообщения
Вы не можете удалять свои сообщения
Вы не можете голосовать в опросах
Вы не можете прикреплять файлы к сообщениям
Вы не можете скачивать файлы