Самый лучший / The Greatest (Шана Фест /Shana Feste) [2009, драма, мелодрама, BDRip] 720p | P

 
Автор Сообщение

sergej644 ®

Пол:

Стаж: 4 года 11 месяцев

Сообщений: 6035

Откуда: Soviet Union



Награды: Нет

Торрент-статистика

Создавать темы 29-Май-2015 16:07

[Цитировать]

--Самый лучший / The Greatest Информация о фильме
Название: Самый лучший
Оригинальное название: The Greatest
Год выхода: 2009
Жанр: драма, мелодрама
Режиссер: Шана Фест /Shana Feste/
В ролях: Пирс Броснан /Pierce Brosnan/, Сьюзен Сарандон /Susan Sarandon/, Кэри Маллиган /Carey Mulligan/, Джонни Симмонс /Johnny Simmons/, Аарон Тейлор-Джонсон /Aaron Taylor-Johnson/, Зои Кравиц /Zoe Kravitz/, Майкл Шеннон /Michael Shannon/, Кевин Хэйгэн /Kevin Hagan/, Эми Мортон /Amy Morton/, Дирдри О’Коннелл /Deirdre O'Connell/
О фильме:
Когда у семейной пары Аллен и Грейс трагически погибает в автокатастрофе сын, жизнь для них теряет смысл, и их отношения с каждым днем становятся все хуже и хуже. Однако, когда на пороге их дома появляется молодая девушка по имени Роза и представляется возлюбленной погибшего сына, все меняется. Ее появление, а также новость о том, что она ждет ребенка, ошеломляет их. Вместе им предстоит пережить горе, научиться понимать друг друга и попытаться вернуть утраченные чувства.

Страна: США
Студии: Barbarian Films / Oceana Media Finance / Silverwood Films / Irish DreamTime и др.
Продолжительность: 01:40:32
Перевод: Профессиональный (многоголосый, закадровый) - R5
Релиз от: by kisluk
Файл
Кодек: H.264
Качество: BDRip 720p
Видео: 1280x534 at 23.976 fps, x264@L4.1, crf, ~3605 kbps avg
Аудио#1: Russian: 48 kHz, AC3, 3/2 (L,C,R,l,r) + LFE ch, ~448.00 kbps avg |Многоголосый закадровый, R5|
Аудио#2: English: 48 kHz, DTS, 3/2 (L,C,R,l,r) + LFE ch, ~1509.00 kbps avg |Оригинал|
Субтитры: Russian (Full), English (SDH)

Скриншоты


MediaInfo

General
Complete name : The.Greatest.2009.720p.BluRay.Rus.Eng.HDCLUB.mkv
Format : Matroska
Format version : Version 2
File size : 3.99 GiB
Duration : 1h 40mn
Overall bit rate : 5 675 Kbps
Movie name : The Greatest (2009) - Release for HDCLUB
Encoded date : UTC 2010-09-13 17:38:27
Writing application : mkvmerge v4.0.0 ('The Stars were mine') сборка от Jun 6 2010 16:18:42
Writing library : libebml v1.0.0 + libmatroska v1.0.0
Video
ID : 1
Format : AVC
Format/Info : Advanced Video Codec
Format profile : High@L4.1
Format settings, CABAC : Yes
Format settings, ReFrames : 6 frames
Codec ID : V_MPEG4/ISO/AVC
Duration : 1h 40mn
Bit rate : 3 605 Kbps
Width : 1 280 pixels
Height : 534 pixels
Display aspect ratio : 2.40:1
Frame rate mode : Constant
Frame rate : 23.976 fps
Color space : YUV
Chroma subsampling : 4:2:0
Bit depth : 8 bits
Scan type : Progressive
Bits/(Pixel*Frame) : 0.220
Stream size : 2.53 GiB (64%)
Title : The Greatest (2009) - Release for HDCLUB
Writing library : x264 core 104 r1713 c276662
Encoding settings : cabac=1 / ref=6 / deblock=1:-3:-3 / analyse=0x3:0x113 / me=umh / subme=10 / psy=1 / psy_rd=1.00:0.00 / mixed_ref=1 / me_range=32 / chroma_me=1 / trellis=2 / 8x8dct=1 / cqm=0 / deadzone=21,11 / fast_pskip=0 / chroma_qp_offset=-2 / threads=6 / sliced_threads=0 / nr=0 / decimate=1 / interlaced=0 / constrained_intra=0 / bframes=8 / b_pyramid=2 / b_adapt=2 / b_bias=0 / direct=3 / weightb=1 / open_gop=0 / weightp=2 / keyint=250 / keyint_min=23 / scenecut=40 / intra_refresh=0 / rc=crf / mbtree=0 / crf=16.5 / qcomp=0.60 / qpmin=10 / qpmax=51 / qpstep=4 / ip_ratio=1.40 / pb_ratio=1.30 / aq=1:0.80
Language : English
Default : Yes
Forced : No
Audio #1
ID : 2
Format : AC-3
Format/Info : Audio Coding 3
Mode extension : CM (complete main)
Format settings, Endianness : Big
Codec ID : A_AC3
Duration : 1h 40mn
Bit rate mode : Constant
Bit rate : 448 Kbps
Channel(s) : 6 channels
Channel positions : Front: L C R, Side: L R, LFE
Sampling rate : 48.0 KHz
Bit depth : 16 bits
Compression mode : Lossy
Stream size : 322 MiB (8%)
Title : многоголосый [ac3 6ch 448 kbps]
Language : Russian
Default : Yes
Forced : No
Audio #2
ID : 3
Format : DTS
Format/Info : Digital Theater Systems
Mode : 16
Format settings, Endianness : Big
Codec ID : A_DTS
Duration : 1h 40mn
Bit rate mode : Constant
Bit rate : 1 509 Kbps
Channel(s) : 6 channels
Channel positions : Front: L C R, Side: L R, LFE
Sampling rate : 48.0 KHz
Bit depth : 24 bits
Compression mode : Lossy
Stream size : 1.06 GiB (27%)
Title : original [dts 6ch 1509 kbps]
Language : English
Default : No
Forced : No
Text #1
ID : 4
Format : UTF-8
Codec ID : S_TEXT/UTF8
Codec ID/Info : UTF-8 Plain Text
Language : Russian
Default : No
Forced : No
Text #2
ID : 5
Format : UTF-8
Codec ID : S_TEXT/UTF8
Codec ID/Info : UTF-8 Plain Text
Language : English
Default : No
Forced : No
Menu
00:00:00.000 : en:00:00:00.000
00:06:54.497 : en:00:06:54.497
00:13:06.661 : en:00:13:06.661
00:18:50.129 : en:00:18:50.129
00:25:34.450 : en:00:25:34.450
00:32:29.698 : en:00:32:29.698
00:40:33.765 : en:00:40:33.765
00:46:09.016 : en:00:46:09.016
00:53:57.401 : en:00:53:57.401
01:01:45.827 : en:01:01:45.827
01:06:03.376 : en:01:06:03.376
01:13:12.179 : en:01:13:12.179
01:19:05.658 : en:01:19:05.658
01:24:51.461 : en:01:24:51.461
01:31:44.374 : en:01:31:44.374
01:34:20.113 : en:01:34:20.113

Дополнительная информация

ЦитатаКто-то писал: Сохранены оригинальные главы как на Blu-ray.
[Профиль] [ЛС]
Показать сообщения:    

Текущее время: Сегодня 00:38

Часовой пояс: GMT



Вы не можете начинать темы
Вы не можете отвечать на сообщения
Вы не можете редактировать свои сообщения
Вы не можете удалять свои сообщения
Вы не можете голосовать в опросах
Вы не можете прикреплять файлы к сообщениям
Вы не можете скачивать файлы