Самый лучший муж [01-08 из 08] (2018) WEB-DLRip

 
Author Message

BOSS ®

Gender:

Longevity: 4 years 10 months

Posts: 14162

Location: ODESSA



: 22 ()

Mega Releaser 1 (1) Top Seeder 2 (1) Top Releaser 4 (1)
Торрент-статистика

Post 12-Aug-2019 17:40

[Quote]

Информация о фильме
Оригинальное название: Самый лучший муж
Год выхода: 2018
Жанр: Остросюжетная мелодрама
Режиссер: Сергей Толкушкин
В ролях: Елена Шилова (II), Алексей Яровенко, Ксения Мишина, Дмитрий Тубольцев, Ирина Мак, Николай Боклан, Павел Тупиков, Мария Хомутова, Владимир Гладкий, Лариса Трояновская
О фильме:
Нина влюблена в своего начальника Глеба, но тот собирается жениться. Глеб делает предложение невесте, но выясняется, что она его обманула и давно замужем. Неужели у Нины появился шанс на счастье? Глеб убеждается, что чуткая, добрая, нежная Нина нужна ему, постепенно их отношения из дружеских перерастают в нечто большее. Кажется, счастье близко – назначен день свадьбы, но на пороге, как призрак из прошлого, появляется бывшая невеста и вручает Глебу их новорожденного ребенка...

Страна: Украина
Студия: Компания IVORY films
Продолжительность: 8 х 00:45:00
Перевод: Не требуется
Файл
Кодек: XviD
Качество: WEB-DLRip
Видео: XviD, ~ 1610 Кбит/с, 720x400, 25 кадр/с
Звук: AC3, 2 ch, 192 Кбит/с

Скриншоты



MediaInfo

General
Complete name : C:01.Самый лучший муж.(2018).WEB-DLRip.by.Nicodem.Files-x.avi
Format : AVI
Format/Info : Audio Video Interleave
File size : 598 MiB
Duration : 46mn 9s
Overall bit rate : 1 812 Kbps
Writing application : VirtualDubMod 1.5.10.3 | www.virtualdub-fr.org || (build 2550/release)
Writing library : VirtualDubMod build 2550/release
Video
ID : 0
Format : MPEG-4 Visual
Format profile : Advanced Simple@L5
Format settings, BVOP : 1
Format settings, QPel : No
Format settings, GMC : No warppoints
Format settings, Matrix : Custom
Codec ID : XVID
Codec ID/Hint : XviD
Duration : 46mn 9s
Bit rate : 1 610 Kbps
Width : 720 pixels
Height : 400 pixels
Display aspect ratio : 16:9
Frame rate : 25.000 fps
Color space : YUV
Chroma subsampling : 4:2:0
Bit depth : 8 bits
Scan type : Progressive
Compression mode : Lossy
Bits/(Pixel*Frame) : 0.224
Stream size : 532 MiB (89%)
Writing library : XviD 73
Audio
ID : 1
Format : AC-3
Format/Info : Audio Coding 3
Mode extension : CM (complete main)
Codec ID : 2000
Duration : 46mn 9s
Bit rate mode : Constant
Bit rate : 192 Kbps
Channel(s) : 2 channels
Channel positions : Front: L R
Sampling rate : 48.0 KHz
Bit depth : 16 bits
Compression mode : Lossy
Stream size : 63.4 MiB (11%)
Alignment : Split accross interleaves
Interleave, duration : 40 ms (1.00 video frame)
Interleave, preload duration : 500 ms
[Profile] [PM]
Display posts from previous:    

The time now is: Today 15:30

All times are GMT



You cannot post new topics in this forum
You cannot reply to topics in this forum
You cannot edit your posts in this forum
You cannot delete your posts in this forum
You cannot vote in polls in this forum
You cannot attach files in this forum
You cannot download files in this forum