Самый лучший день (Жора Крыжовников) [2015, Россия, комедия, музыка, BDRip 720p]

 
Автор Сообщение

TorrentFilm ®

Пол:

Стаж: 2 года

Сообщений: 7741



Награды: Нет

Торрент-статистика

Создавать темы 15-Фев-2016 00:08

[Цитировать]

Самый лучший день- Страна: Россия
Жанр: комедия, музыка
Год выпуска: 2015
Продолжительность: 01:47:05
Перевод: Не требуется
Cубтитры: нет
Оригинальная аудиодорожка: русский
Режиссер: Жора Крыжовников
В ролях: Дмитрий Нагиев, Юлия Александрова, Ольга Серябкина, Инна Чурикова, Михаил Боярский, Елена Яковлева, Владислав Ветров, Валентина Мазунина, Ян Цапник, Андрей Малахов
Описание: Успешному сотруднику ДПС Пете Васютину уже давно пора заводить семью, а он живет с мамой, хозяйкой придорожного кафе. И невеста есть – королева бензоколонки, кассирша Оля. В тот самый день, когда Петя решает сделать Оле предложение, в его служебную машину врезается пьяная поп-звезда Алина Шёпот. Чтобы избежать наказания, Алина решает соблазнить Петю.

Тип релиза: BDRip 720р (исходник - Blu-ray)
Контейнер: MKV
Видео: 1280x694 (1.85:1), 24.000 fps, x264@L4.1 ~6254 kbps avg
Аудио: 48 kHz, DTS, 3/2 (L,C,R,l,r) + LFE ch, ~1510.00 kbps avg

MediaInfo | x264 log

Format : Matroska
Format version : Version 4 / Version 2
File size : 5.92 GiB
Duration : 1h 47mn
Overall bit rate : 7 921 Kbps
Movie name : Самый лучший день (2015) :: AFM ::
Encoded date : UTC 2016-02-13 03:43:49
Writing application : mkvmerge v8.3.0 ('Over the Horizon') 32bit
Writing library : libebml v1.3.1 + libmatroska v1.4.2
DURATION : 01:47:04.630000000
NUMBER_OF_FRAMES : 602309
NUMBER_OF_BYTES : 1212448017
_STATISTICS_WRITING_APP : mkvmerge v8.3.0 ('Over the Horizon') 32bit
_STATISTICS_WRITING_DATE_UTC : 2016-02-13 03:43:49
_STATISTICS_TAGS : BPS DURATION NUMBER_OF_FRAMES NUMBER_OF_BYTES
Video
ID : 1
Format : AVC
Format/Info : Advanced Video Codec
Format profile : High@L4.1
Format settings, CABAC : Yes
Format settings, ReFrames : 9 frames
Codec ID : V_MPEG4/ISO/AVC
Duration : 1h 47mn
Bit rate : 6 254 Kbps
Width : 1 280 pixels
Height : 694 pixels
Display aspect ratio : 1.85:1
Frame rate mode : Constant
Frame rate : 24.000 fps
Color space : YUV
Chroma subsampling : 4:2:0
Bit depth : 8 bits
Scan type : Progressive
Bits/(Pixel*Frame) : 0.293
Stream size : 4.68 GiB (79%)
Title : BDRip by AFM [RuTracker.org]
Writing library : x264 core 148 r2665kMod a01e339
Encoding settings : cabac=1 / ref=9 / deblock=1:-3:-3 / analyse=0x3:0x113 / me=umh / subme=10 / psy=1 / fade_compensate=0.00 / psy_rd=1.00:0.00 / mixed_ref=1 / me_range=32 / chroma_me=1 / trellis=2 / 8x8dct=1 / cqm=0 / deadzone=21,11 / fast_pskip=0 / chroma_qp_offset=-2 / threads=6 / lookahead_threads=1 / sliced_threads=0 / nr=0 / decimate=1 / interlaced=0 / bluray_compat=0 / constrained_intra=0 / fgo=0 / bframes=10 / b_pyramid=2 / b_adapt=2 / b_bias=0 / direct=1 / weightb=1 / open_gop=0 / weightp=2 / keyint=250 / keyint_min=23 / scenecut=40 / intra_refresh=0 / rc_lookahead=40 / rc=crf / mbtree=0 / crf=16.8000 / qcomp=0.65 / qpmin=0 / qpmax=69 / qpstep=4 / vbv_maxrate=50000 / vbv_bufsize=62500 / crf_max=0.0 / nal_hrd=none / filler=0 / ip_ratio=1.35 / pb_ratio=1.30 / aq=2:0.90 / zones=148120,154191,q=35
Language : Russian
Default : Yes
Forced : No
Audio
ID : 2
Format : DTS
Format/Info : Digital Theater Systems
Mode : 16
Format settings, Endianness : Big
Codec ID : A_DTS
Duration : 1h 47mn
Bit rate mode : Constant
Bit rate : 1 510 Kbps
Channel(s) : 6 channels
Channel positions : Front: L C R, Side: L R, LFE
Sampling rate : 48.0 KHz
Bit depth : 24 bits
Compression mode : Lossy
Stream size : 1.13 GiB (19%)
Title : DTS 5.1 ~1510 kbps
Language : Russian
Default : Yes
Forced : No

x264

x264 [info]: frame I:1420 Avg QP:17.76 size:127395
x264 [info]: frame P:37804 Avg QP:19.26 size: 60363
x264 [info]: frame B:114967 Avg QP:21.42 size: 23345
x264 [info]: consecutive B-frames: 2.9% 3.4% 12.8% 32.6% 17.5% 26.4% 2.3% 0.6% 0.5% 0.2% 0.8%
x264 [info]: mb I I16..4: 3.2% 77.2% 19.6%
x264 [info]: mb P I16..4: 1.8% 22.1% 3.8% P16..4: 29.1% 25.2% 12.7% 0.0% 0.0% skip: 5.3%
x264 [info]: mb B I16..4: 0.4% 3.0% 0.6% B16..8: 36.0% 14.9% 4.6% direct:10.4% skip:30.0% L0:36.1% L1:39.0% BI:24.9%
x264 [info]: 8x8 transform intra:78.2% inter:65.8%
x264 [info]: coded y,uvDC,uvAC intra: 81.9% 83.6% 57.9% inter: 37.1% 33.9% 7.9%
x264 [info]: i16 v,h,dc,p: 31% 23% 7% 39%
x264 [info]: i8 v,h,dc,ddl,ddr,vr,hd,vl,hu: 16% 12% 9% 7% 11% 11% 11% 11% 13%
x264 [info]: i4 v,h,dc,ddl,ddr,vr,hd,vl,hu: 18% 10% 4% 8% 13% 13% 12% 10% 12%
x264 [info]: i8c dc,h,v,p: 43% 24% 19% 14%
x264 [info]: Weighted P-Frames: Y:7.2% UV:3.8%
x264 [info]: ref P L0: 50.5% 17.4% 15.1% 4.8% 3.9% 2.6% 2.4% 1.5% 1.6% 0.2% 0.0%
x264 [info]: ref B L0: 83.6% 8.2% 3.3% 1.7% 1.2% 1.0% 0.6% 0.2%
x264 [info]: ref B L1: 95.8% 4.2%
x264 [info]: kb/s:6408.78

Скриншоты

[Профиль] [ЛС]
Показать сообщения:    

Текущее время: Сегодня 13:00

Часовой пояс: GMT



Вы не можете начинать темы
Вы не можете отвечать на сообщения
Вы не можете редактировать свои сообщения
Вы не можете удалять свои сообщения
Вы не можете голосовать в опросах
Вы не можете прикреплять файлы к сообщениям
Вы не можете скачивать файлы