Самый лучший день (2015) WEB-DLRip-AVC | iTunes Russia

 
Автор Сообщение

достали все ®

Пол:

Стаж: 1 год 8 месяцев

Сообщений: 6515



Награды: 12 (Подробнее)

Mega Seeder 1 (Количество: 1) Top Releaser 4 (Количество: 1) Top Releaser 2 (Количество: 1)
Торрент-статистика

Создавать темы 26-Янв-2016 11:41

[Цитировать]

Информация о фильме
Оригинальное название: Самый лучший день
Год выпуска: 2015
Жанр: Комедия, музыка
Выпущено: Россия, Базелевс Продакшн
Режиссер: Жора Крыжовников
В ролях: Дмитрий Нагиев, Юлия Александрова, Ольга Серябкина, Инна Чурикова, Михаил Боярский, Елена Яковлева, Владислав Ветров, Валентина Мазунина, Ян Цапник, Андрей Малахов, Толепберген Байсакалов, Юлия Синицына, Юлия Сулес, Александр Иванков, Андрей Ребенков, Михаил Павлик, Сергей Лавыгин, Михаил Черкасов, Илья Рубанов
О фильме: Успешному сотруднику ДПС Пете Васютину уже давно пора заводить семью, а он живет с мамой, хозяйкой придорожного кафе. И невеста есть — королева бензоколонки, кассирша Оля. В тот самый день, когда Петя решает сделать Оле предложение, в его служебную машину врезается пьяная поп-звезда Алина Шёпот. Чтобы избежать наказания, Алина решает соблазнить Петю…

Файл
Качество: WEB-DLRip (AVC)
Видео: MPEG-4 AVC, 3500 Кбит/с, 1024x576, 24 кадр/с
Аудио: AC3, 6 ch, 384 Кбит/с
Размер: 2.90 ГБ
Продолжительность: 01:46:54
Язык: Русский
Озвучивание - iTunes Russia
Сохранены оригинальные чаптеры как на исходном WEB-DL.

x264

x264 [info]: frame I:1463 Avg QP:17.64 size: 83348
x264 [info]: frame P:45636 Avg QP:20.71 size: 33698
x264 [info]: frame B:106854 Avg QP:22.83 size: 10719
x264 [info]: consecutive B-frames: 4.4% 9.7% 8.8% 65.3% 5.7% 4.3% 0.5% 0.4% 0.1% 0.6%
x264 [info]: mb I I16..4: 4.7% 68.6% 26.7%
x264 [info]: mb P I16..4: 0.8% 16.0% 2.7% P16..4: 28.3% 32.8% 10.0% 4.3% 0.4% skip: 4.7%
x264 [info]: mb B I16..4: 0.2% 1.9% 0.3% B16..8: 31.9% 23.9% 4.1% direct: 7.1% skip:30.5% L0:30.2% L1:46.4% BI:23.4%
x264 [info]: 8x8 transform intra:79.9% inter:55.5%
x264 [info]: direct mvs spatial:98.0% temporal:2.0%
x264 [info]: coded y,uvDC,uvAC intra: 89.7% 84.0% 59.0% inter: 30.7% 20.9% 9.0%
x264 [info]: i16 v,h,dc,p: 26% 14% 5% 56%
x264 [info]: i8 v,h,dc,ddl,ddr,vr,hd,vl,hu: 11% 10% 6% 9% 12% 13% 13% 12% 15%
x264 [info]: i4 v,h,dc,ddl,ddr,vr,hd,vl,hu: 13% 11% 4% 8% 14% 14% 13% 11% 13%
x264 [info]: i8c dc,h,v,p: 33% 26% 20% 20%
x264 [info]: Weighted P-Frames: Y:9.1% UV:4.6%
x264 [info]: ref P L0: 59.0% 16.3% 13.7% 3.0% 2.5% 1.7% 1.3% 0.8% 0.8% 0.7% 0.1% 0.0%
x264 [info]: ref B L0: 91.0% 5.2% 1.7% 0.7% 0.6% 0.4% 0.3% 0.2% 0.1%
x264 [info]: ref B L1: 97.9% 2.1%
x264 [info]: kb/s:3498.40

Инфо-файл

Общее
Уникальный идентификатор : 179696474526171437455635378945000300836 (0x87304838F4B205EC96164CD5FF5D6124)
Полное имя : D:ЗагрузкиSamij.Luchshij.Den.2015.WEB-DLRip.(AVC).ExKinoRay.mkv
Формат : Matroska
Версия формата : Version 2
Размер файла : 2,90 Гбайт
Продолжительность : 1 ч. 46 м.
Общий поток : 3884 Кбит/сек
Название фильма : Самый лучший день.2015.Rip by: ollan
Дата кодирования : UTC 2016-01-26 08:12:54
Программа кодирования : mkvmerge v5.6.0 ('Kenya Kane') built on May 27 2012 16:44:04
Библиотека кодирования : libebml v1.2.3 + libmatroska v1.3.0
Видео
Идентификатор : 1
Формат : AVC
Формат/Информация : Advanced Video Codec
Профиль формата : High@L4.1
Параметр CABAC формата : Да
Параметр ReFrames формата : 10 кадров
Идентификатор кодека : V_MPEG4/ISO/AVC
Продолжительность : 1 ч. 46 м.
Битрейт : 3500 Кбит/сек
Ширина : 1024 пикселя
Высота : 576 пикселей
Соотношение сторон : 16:9
Режим частоты кадров : Постоянный
Частота кадров : 24,000 кадра/сек
Цветовое пространство : YUV
Субдискретизация насыщенности : 4:2:0
Битовая глубина : 8 бит
Тип развёртки : Прогрессивная
Бит/(Пиксели*Кадры) : 0.247
Размер потока : 2,56 Гбайт (88%)
Библиотека кодирования : x264 core 125 r2200 999b753
Настройки программы : cabac=1 / ref=10 / deblock=1:-3:-3 / analyse=0x3:0x133 / me=umh / subme=11 / psy=1 / psy_rd=1.00:0.05 / mixed_ref=1 / me_range=48 / chroma_me=1 / trellis=2 / 8x8dct=1 / cqm=0 / deadzone=21,11 / fast_pskip=0 / chroma_qp_offset=-3 / threads=12 / lookahead_threads=2 / sliced_threads=0 / nr=0 / decimate=0 / interlaced=0 / bluray_compat=0 / constrained_intra=0 / bframes=9 / b_pyramid=2 / b_adapt=2 / b_bias=0 / direct=3 / weightb=1 / open_gop=0 / weightp=2 / keyint=240 / keyint_min=23 / scenecut=40 / intra_refresh=0 / rc=2pass / mbtree=0 / bitrate=3500 / ratetol=1.0 / qcomp=0.60 / qpmin=0 / qpmax=69 / qpstep=4 / cplxblur=20.0 / qblur=0.5 / ip_ratio=1.40 / pb_ratio=1.30 / aq=1:1.00
Язык : Russian
Default : Да
Forced : Нет
Аудио
Идентификатор : 2
Формат : AC-3
Формат/Информация : Audio Coding 3
Расширение режима : CM (complete main)
Параметр Endianness формата : Big
Идентификатор кодека : A_AC3
Продолжительность : 1 ч. 46 м.
Вид битрейта : Постоянный
Битрейт : 384 Кбит/сек
Каналы : 6 каналов
Расположение каналов : Front: L C R, Side: L R, LFE
Частота : 48,0 КГц
Битовая глубина : 16 бит
Метод сжатия : С потерями
Размер потока : 294 Мбайт (10%)
Заголовок : iTunes Russia
Язык : Russian
Default : Да
Forced : Нет
Меню
00:00:00.000 : ru:Chapter 01
00:06:21.000 : ru:Chapter 02
00:11:40.000 : ru:Chapter 03
00:17:17.000 : ru:Chapter 04
00:22:26.000 : ru:Chapter 05
00:28:25.000 : ru:Chapter 06
00:34:38.000 : ru:Chapter 07
00:41:31.000 : ru:Chapter 08
00:47:00.000 : ru:Chapter 09
00:53:24.000 : ru:Chapter 10
00:59:26.000 : ru:Chapter 11
01:04:54.000 : ru:Chapter 12
01:11:11.000 : ru:Chapter 13
01:16:52.000 : ru:Chapter 14
01:22:58.000 : ru:Chapter 15
01:28:08.000 : ru:Chapter 16
01:33:29.000 : ru:Chapter 17
01:39:37.000 : ru:Chapter 18

Скриншоты



Rip by:
[Профиль] [ЛС]
Показать сообщения:    

Текущее время: Сегодня 18:17

Часовой пояс: GMT



Вы не можете начинать темы
Вы не можете отвечать на сообщения
Вы не можете редактировать свои сообщения
Вы не можете удалять свои сообщения
Вы не можете голосовать в опросах
Вы не можете прикреплять файлы к сообщениям
Вы не можете скачивать файлы