Самый лучший день (2015) WEB-DLRip от New Team

 
Автор Сообщение

достали все ®

Пол:

Стаж: 1 год 8 месяцев

Сообщений: 6554



Награды: 12 (Подробнее)

Mega Releaser 3 (Количество: 1) Top Releaser 4 (Количество: 1) За внесенный вклад в развитие сайта (Количество: 1)
Торрент-статистика

Создавать темы 25-Янв-2016 07:53

[Цитировать]

Страна: Россия
Жанр: комедия, музыка
Год выпуска: 2015
Продолжительность: 01:46:54
Перевод: Не требуется
Режиссер: Жора Крыжовников
В ролях: Дмитрий Нагиев, Юлия Александрова, Ольга Серябкина, Инна Чурикова, Михаил Боярский, Елена Яковлева, Владислав Ветров, Валентина Мазунина, Ян Цапник, Андрей Малахов
Описание: Успешному сотруднику ДПС Пете Васютину уже давно пора заводить семью, а он живет с мамой, хозяйкой придорожного кафе. И невеста есть - королева бензоколонки, кассирша Оля. В тот самый день, когда Петя решает сделать Оле предложение, в его служебную машину врезается пьяная поп-звезда Алина Шёпот. Чтобы избежать наказания, Алина решает соблазнить Петю...

Качество: WEB-DLRip | WEB DL 720p
Контейнер: AVI
Видео: XviD, 688x384 (16:9), 838 kbps, 24 fps, 0,132 bpp
Аудио: MP3 / 2.0 / 48 kHz / 128 kbps /
Раздача от:

Скриншоты

Media Info

General
Complete name : D:My_ripSamii.luchshii.den.2015.WEBDLRip745,by,NewTeam.avi
Format : AVI
Format/Info : Audio Video Interleave
File size : 746 MiB
Duration : 1h 46mn
Overall bit rate : 976 Kbps
Writing application : VirtualDubMod 1.5.10.3 | www.virtualdub-fr.org || (build 2550/release)
Writing library : VirtualDubMod build 2550/release
Video
ID : 0
Format : MPEG-4 Visual
Format profile : Advanced Simple@L5
Format settings, BVOP : 1
Format settings, QPel : No
Format settings, GMC : No warppoints
Format settings, Matrix : Custom
Codec ID : XVID
Codec ID/Hint : XviD
Duration : 1h 46mn
Bit rate : 838 Kbps
Width : 688 pixels
Height : 384 pixels
Display aspect ratio : 16:9
Frame rate : 24.000 fps
Color space : YUV
Chroma subsampling : 4:2:0
Bit depth : 8 bits
Scan type : Progressive
Compression mode : Lossy
Bits/(Pixel*Frame) : 0.132
Stream size : 641 MiB (86%)
Writing library : XviD 73
Audio
ID : 1
Format : MPEG Audio
Format version : Version 1
Format profile : Layer 3
Mode : Joint stereo
Mode extension : MS Stereo
Codec ID : 55
Codec ID/Hint : MP3
Duration : 1h 46mn
Bit rate mode : Constant
Bit rate : 128 Kbps
Channel(s) : 2 channels
Sampling rate : 48.0 KHz
Compression mode : Lossy
Stream size : 97.9 MiB (13%)
Alignment : Aligned on interleaves
Interleave, duration : 42 ms (1.00 video frame)
Interleave, preload duratio : 504 ms
Writing library : LAME3.99r
Encoding settings : -m j -V 4 -q 2 -lowpass 17 -b 128
[Профиль] [ЛС]
Показать сообщения:    

Текущее время: Сегодня 12:45

Часовой пояс: GMT



Вы не можете начинать темы
Вы не можете отвечать на сообщения
Вы не можете редактировать свои сообщения
Вы не можете удалять свои сообщения
Вы не можете голосовать в опросах
Вы не можете прикреплять файлы к сообщениям
Вы не можете скачивать файлы