Самый лучший день (2015) WEB-DLRip-AVC | iTunes

 
Автор Сообщение

BOSS ®

Пол:

Стаж: 2 года 1 месяц

Сообщений: 3735

Откуда: ODESSA



Награды: 20 (Подробнее)

Top Keeper 4 (Количество: 1) Top Releaser 3 (Количество: 1) За внесенный вклад в развитие сайта (Количество: 1)
Торрент-статистика

Создавать темы 25-Янв-2016 05:50

[Цитировать]

Информация о фильме
Название: Самый лучший день
Год выпуска: 2015
Страна: Россия
Жанр: комедия, музыка-Перевод: Оригинальный [iTunes]
Продолжительность: 01:46:54-Режиссер: Жора Крыжовников
В ролях: Дмитрий Нагиев (Петр), Юлия Александрова (Оля), Ольга Серябкина (Алина), Инна Чурикова (Любовь), Михаил Боярский (Геннадий), Елена Яковлева (Татьяна), Владислав Ветров (Викентий), Валентина Мазунина (Анжела), Ян Цапник (начальник ОВД), Андрей Малахов (играет самого себя), Толепберген Байсакалов (Касим), Юлия Синицына (жена Касима)-Описание:
Успешному сотруднику ДПС Пете Васютину уже давно пора заводить семью, а он живет с мамой, хозяйкой придорожного кафе. И невеста есть - королева бензоколонки, кассирша Оля. В тот самый день, когда Петя решает сделать Оле предложение, в его служебную машину врезается пьяная поп-звезда Алина Шёпот. Чтобы избежать наказания, Алина решает соблазнить Петю...-Рейтинг:
-Качество: WEB-DLRip-AVC
Формат: MKV
Видео: AVC, 1024x576 (16:9), 1571 kbps, 24 fps, 0,111 bpp
Аудио: AC3 / 5.1 / 48 kHz / 384 kbps / 16 bit-

ОтчетМедиаИнфо

General
Unique ID : 235660209126539287731097306237352860656 (0xB14A815E56915EF89285C357DAC4DBF0)
Complete name : D:downloadCamyi.Lu4wii.Deny.2015.WEB-DLRip-AVC by schultz R.G.Resident.mkv
Format : Matroska
Format version : Version 2
File size : 1.46 GiB
Duration : 1h 46mn
Overall bit rate : 1 956 Kbps
Encoded date : UTC 2016-01-25 04:23:41
Writing application : mkvmerge v7.8.0 ('River Man') 32bit built on Apr 3 2015 12:11:22
Writing library : libebml v1.3.1 + libmatroska v1.4.2
Video
ID : 1
Format : AVC
Format/Info : Advanced Video Codec
Format profile : High@L4.1
Format settings, CABAC : Yes
Format settings, ReFrames : 12 frames
Codec ID : V_MPEG4/ISO/AVC
Duration : 1h 46mn
Bit rate : 1 571 Kbps
Width : 1 024 pixels
Height : 576 pixels
Display aspect ratio : 16:9
Frame rate : 24.000 fps
Color space : YUV
Chroma subsampling : 4:2:0
Bit depth : 8 bits
Scan type : Progressive
Bits/(Pixel*Frame) : 0.111
Stream size : 1.14 GiB (78%)
Writing library : x264 core 146 r2538 121396c
Encoding settings : cabac=1 / ref=12 / deblock=1:-3:-3 / analyse=0x3:0x113 / me=umh / subme=11 / psy=1 / psy_rd=1.00:0.00 / mixed_ref=1 / me_range=48 / chroma_me=1 / trellis=2 / 8x8dct=1 / cqm=0 / deadzone=21,11 / fast_pskip=0 / chroma_qp_offset=-2 / threads=12 / lookahead_threads=3 / sliced_threads=0 / nr=0 / decimate=1 / interlaced=0 / bluray_compat=0 / constrained_intra=0 / bframes=13 / b_pyramid=2 / b_adapt=2 / b_bias=0 / direct=3 / weightb=1 / open_gop=0 / weightp=2 / keyint=240 / keyint_min=23 / scenecut=40 / intra_refresh=0 / rc_lookahead=40 / rc=2pass / mbtree=1 / bitrate=1571 / ratetol=1.0 / qcomp=0.60 / qpmin=0 / qpmax=69 / qpstep=4 / cplxblur=20.0 / qblur=0.5 / vbv_maxrate=14000 / vbv_bufsize=14000 / nal_hrd=none / filler=0 / ip_ratio=1.40 / aq=1:1.00
Default : Yes
Forced : No
Audio
ID : 2
Format : AC-3
Format/Info : Audio Coding 3
Mode extension : CM (complete main)
Codec ID : A_AC3
Duration : 1h 46mn
Bit rate mode : Constant
Bit rate : 384 Kbps
Channel(s) : 6 channels
Channel positions : Front: L C R, Side: L R, LFE
Sampling rate : 48.0 KHz
Bit depth : 16 bits
Compression mode : Lossy
Stream size : 294 MiB (20%)
Default : Yes
Forced : No

Скриншоты

[Профиль] [ЛС]
Показать сообщения:    

Текущее время: Сегодня 18:15

Часовой пояс: GMT



Вы не можете начинать темы
Вы не можете отвечать на сообщения
Вы не можете редактировать свои сообщения
Вы не можете удалять свои сообщения
Вы не можете голосовать в опросах
Вы не можете прикреплять файлы к сообщениям
Вы не можете скачивать файлы