Самый крутой / Top Dog (2014) BDRip 720p от MediaClub | A

 
Автор Сообщение

sergej644 ®

Пол:

Стаж: 4 года 11 месяцев

Сообщений: 6042

Откуда: Soviet Union



Награды: Нет

Торрент-статистика

Создавать темы 07-Ноя-2014 10:35

[Цитировать]

Название: Самый крутой
Оригинальное название: Top Dog
Год выпуска: 2014
Жанр: Драма, криминал
Режиссер: Мартин Кемп
В ролях: Винсент Риган, Лео Грегори, Лейла Вонг, Риччи Харнетт, Адриан Палмер, Сьюзен Пенхалигон, Райан Олива, Ричард Бэнкс, Мэтт Джонс, Леа Перкинс
О фильме: Билли Эванс является лидером отъявленных хулиганов, футбольных фанатов клуба «Тоттенхэм Хотспур». Билли откровенно наслаждается своей жизнью, считая, что он может быть выше закона. Одновременно он ведет жизнь простого обывателя, любит свою жену Саманту, заботится о ближних, готов выручить тетушку и дядю, попавших в неприятную историю с местным преступным авторитетом. Но когда Билли начинает путать его деятельность мелкого хулигана с преступным миром, в который он погружается быстро и безболезненно, это приводит к катастрофическим последствиям…

Страна: Великобритания
Студия: Richwater Films
Продолжительность: 01:35:37
Перевод: Авторский одноголосый
Файл
Кодек: MPEG-4 AVC
Качество: BDRip 720p
Видео: 5200 Кбит/с, 1280x536
Аудио #1: Русский (AC3, 6 ch, 448 Кбит/с) / Авторский одноголосый (Яроцкий)
Аудио #2: Английский (DTS, 6 ch, 768 Кбит/с)
Семпл

Инфо-файл

General
Unique ID : 234317407745673716126228049485600168270 (0xB047E42621F7EFA0A6B77104B820994E)
Complete name : C:Samyj.krutoj.2014.x264.BDRip.(720p)-MediaClub.mkv
Format : Matroska
Format version : Version 2
File size : 4.28 GiB
Duration : 1h 35mn
Overall bit rate : 6 414 Kbps
Movie name : -=Released by Kortec for MediaClub=-
Encoded date : UTC 2014-11-07 07:52:13
Writing application : mkvmerge v4.0.0 ('The Stars were mine') built on Jun 6 2010 16:18:42
Writing library : libebml v1.0.0 + libmatroska v1.0.0
Video
ID : 1
Format : AVC
Format/Info : Advanced Video Codec
Format profile : High@L4.1
Format settings, CABAC : Yes
Format settings, ReFrames : 9 frames
Codec ID : V_MPEG4/ISO/AVC
Duration : 1h 35mn
Bit rate : 5 200 Kbps
Width : 1 280 pixels
Height : 536 pixels
Display aspect ratio : 2.40:1
Frame rate mode : Constant
Frame rate : 23.976 fps
Color space : YUV
Chroma subsampling : 4:2:0
Bit depth : 8 bits
Scan type : Progressive
Bits/(Pixel*Frame) : 0.316
Stream size : 3.39 GiB (79%)
Writing library : x264 core 130 r2273 b3065e6
Encoding settings : cabac=1 / ref=9 / deblock=1:-2:-2 / analyse=0x3:0x133 / me=umh / subme=11 / psy=1 / psy_rd=1.00:0.10 / mixed_ref=1 / me_range=32 / chroma_me=1 / trellis=2 / 8x8dct=1 / cqm=0 / deadzone=21,11 / fast_pskip=0 / chroma_qp_offset=-3 / threads=6 / lookahead_threads=1 / sliced_threads=0 / nr=0 / decimate=0 / interlaced=0 / bluray_compat=0 / constrained_intra=0 / bframes=8 / b_pyramid=2 / b_adapt=2 / b_bias=0 / direct=3 / weightb=1 / open_gop=0 / weightp=2 / keyint=240 / keyint_min=23 / scenecut=40 / intra_refresh=0 / rc=2pass / mbtree=0 / bitrate=5200 / ratetol=1.0 / qcomp=0.60 / qpmin=0 / qpmax=69 / qpstep=4 / cplxblur=20.0 / qblur=0.5 / ip_ratio=1.40 / pb_ratio=1.30 / aq=1:0.80
Language : English
Default : No
Forced : No
Audio #1
ID : 2
Format : AC-3
Format/Info : Audio Coding 3
Mode extension : CM (complete main)
Format settings, Endianness : Big
Codec ID : A_AC3
Duration : 1h 35mn
Bit rate mode : Constant
Bit rate : 448 Kbps
Channel(s) : 6 channels
Channel positions : Front: L C R, Side: L R, LFE
Sampling rate : 48.0 KHz
Bit depth : 16 bits
Compression mode : Lossy
Stream size : 306 MiB (7%)
Language : Russian
Default : Yes
Forced : Yes
Audio #2
ID : 3
Format : DTS
Format/Info : Digital Theater Systems
Mode : 16
Format settings, Endianness : Big
Codec ID : A_DTS
Duration : 1h 35mn
Bit rate mode : Constant
Bit rate : 768 Kbps
Channel(s) : 6 channels
Channel positions : Front: L C R, Side: L R, LFE
Sampling rate : 48.0 KHz
Bit depth : 24 bits
Compression mode : Lossy
Stream size : 525 MiB (12%)
Language : English
Default : No
Forced : No

Скриншоты


О релизе

Рип: Kortec
Релиз-группа: MediaClub
Озвучка: Михаил Яроцкого (kyberpunk)
Доступен благодаря: mihaildns, будулайроманов, dikii, kokaino1987, slava_irish, guinness.
Релиз от:
[Профиль] [ЛС]
Показать сообщения:    

Текущее время: Сегодня 22:03

Часовой пояс: GMT



Вы не можете начинать темы
Вы не можете отвечать на сообщения
Вы не можете редактировать свои сообщения
Вы не можете удалять свои сообщения
Вы не можете голосовать в опросах
Вы не можете прикреплять файлы к сообщениям
Вы не можете скачивать файлы