Самый крутой / Top dog (Мартин Кемп / Martin Kemp) [2014, Великобритания, драма, DVDRip] VO (Datynet)

 
Автор Сообщение

Создавать темы 13-Июл-2014 16:36

Самый крутой / Top dog
Страна: Великобритания
Жанр: драма
Год выпуска: 2014
Продолжительность: 01:31:42
Перевод: Одноголосый закадровый (Datynet)
Cубтитры: нет
Режиссер: Мартин Кемп / Martin Kemp
В ролях: Винсент Риган, Лео Грегори, Лейла Вонг, Риччи Харнетт, Адриан Палмер, Сьюзен Пенхалигон, Райан Олива
Описание: У Билли Эванса есть всё - свой бизнес, семья. Все свободное время он проводит в компании друзей - таких же упертых футбольных фанатов, как он сам. Этой идиллии приходит конец, когда он решает "сыграть на чужом поле" - перейти дорогу местному авторитету Микки. вскоре это противостояние выливается в настоящую войну, цель которой выяснить , кто же здесь самый крутой...
Доп. информация: Экранизация романа Дуги Бримсона. Весьма добротный английский "нуар". Английские критики любят такие фильмы (ведь своя рубашка ближе к телу), они с радостью тыкают в такие фильмы пальцами и кричат: Ура! Мы еще не совсем продались Голливуду! Мы что-то можем сами!
"Самый крутой" собрал на родине хорошую прессу, никто не осмелился поставить фильму ниже 4 баллов из 5.
Над релизом работали:
перевод: Михаил Васильев (lakdhf)
озвучил: Datynet
Релиз осуществлен при поддержке группы "Правильный перевод фильмов" (ВК)
и релиз-группы

В фильме присутствует ненормативная лексика!
Сэмпл: https://yadi.sk/d/zyw7ot-qTvTEg
Качество видео: DVDRip
Формат видео: AVI
Видео: 1794 Kbps, 720x304 (2.35:1), 25 000 fps, MPEG 4 XviD
Аудио: 192 Kbps, 44.1 KHz, 2 ch, MPEG Audio MP 3

MediaInfo

General
Complete name : C:\Users\Владелец\Desktop\Top Dog.avi
Format : AVI
Format/Info : Audio Video Interleave
File size : 1.28 GiB
Duration : 1h 31mn
Overall bit rate : 1 996 Kbps
Video
ID : 0
Format : MPEG-4 Visual
Format profile : Advanced Simple@L5
Format settings, BVOP : 2
Format settings, QPel : No
Format settings, GMC : No warppoints
Format settings, Matrix : Default (H.263)
Codec ID : XVID
Codec ID/Hint : XviD
Duration : 1h 31mn
Bit rate : 1 794 Kbps
Width : 720 pixels
Height : 304 pixels
Display aspect ratio : 2.35:1
Frame rate : 25.000 fps
Color space : YUV
Chroma subsampling : 4:2:0
Bit depth : 8 bits
Scan type : Progressive
Compression mode : Lossy
Bits/(Pixel*Frame) : 0.328
Stream size : 1.15 GiB (90%)
Writing library : XviD 64
Audio
ID : 1
Format : MPEG Audio
Format version : Version 1
Format profile : Layer 3
Codec ID : 55
Codec ID/Hint : MP3
Duration : 1h 31mn
Bit rate mode : Constant
Bit rate : 192 Kbps
Channel(s) : 2 channels
Sampling rate : 44.1 KHz
Compression mode : Lossy
Stream size : 126 MiB (10%)
Alignment : Split accross interleaves
Interleave, duration : 40 ms (1.00 video frame)
Interleave, preload duration : 500 ms

Скриншот c названием фильма

Скриншоты




 
Показать сообщения:    

Текущее время: Сегодня 22:09

Часовой пояс: GMT



Вы не можете начинать темы
Вы не можете отвечать на сообщения
Вы не можете редактировать свои сообщения
Вы не можете удалять свои сообщения
Вы не можете голосовать в опросах
Вы не можете прикреплять файлы к сообщениям
Вы не можете скачивать файлы