Самый крутой / Top Dog (Мартин Кемп / Martin Kemp) [2014, Великобритания, драма, криминал, DVDRip] VO (datynet)

 
Автор Сообщение

Создавать темы 13-Июл-2014 16:36

Самый крутой / Top Dog
Страна: Великобритания
Жанр: драма, криминал
Год выпуска: 2014
Продолжительность: 01:31:43
Перевод: Одноголосый закадровый datynet
Cубтитры: нет
Оригинальная аудиодорожка: нет
Режиссер: Мартин Кемп / Martin Kemp
В ролях: Винсент Риган, Лео Грегори, Лейла Вонг, Риччи Харнетт, Адриан Палмер, Сьюзен Пенхалигон, Райан Олива, Ричард Бэнкс, Мэтт Джонс, Леа Перкинс
Описание: У Билли Эванса есть всё - свой бизнес, семья. Все свободное время он проводит в компании друзей - таких же упертых футбольных фанатов, как он сам. Этой идиллии приходит конец, когда он решает "сыграть на чужом поле" - перейти дорогу местному авторитету Микки. вскоре это противостояние выливается в настоящую войну, цель которой выяснить , кто же здесь самый крутой...
По переводу : Михаила Васильева (lakdhf)
Внимание в фильме присутствует ненормативная лексика!
Сэмпл: http://multi-up.com/981125
Качество видео: DVDRip
Формат видео: AVI
Видео: 640x272 (2.35:1), 25 fps, XviD MPEG-4 ~926 kbps avg, 0.21 bit/pixel
Аудио: 44.100 kHz, MPEG Layer 3, 2 ch, ~128.00 kbps avg

MediaInfo

General
Complete name : D:\Top.Dog.2014.DVDRip.avi
Format : AVI
Format/Info : Audio Video Interleave
File size : 698 MiB
Duration : 1h 31mn
Overall bit rate : 1 064 Kbps
Writing application : VirtualDubModRus 1.5.10.2 (build 2542/release)
Writing library : VirtualDubMod build 2542/release
Video
ID : 0
Format : MPEG-4 Visual
Format profile : Advanced Simple@L5
Format settings, BVOP : Yes
Format settings, QPel : No
Format settings, GMC : No warppoints
Format settings, Matrix : Default (H.263)
Codec ID : XVID
Codec ID/Hint : XviD
Duration : 1h 31mn
Bit rate : 926 Kbps
Width : 640 pixels
Height : 272 pixels
Display aspect ratio : 2.35:1
Frame rate : 25.000 fps
Color space : YUV
Chroma subsampling : 4:2:0
Bit depth : 8 bits
Scan type : Progressive
Compression mode : Lossy
Bits/(Pixel*Frame) : 0.213
Stream size : 608 MiB (87%)
Writing library : XviD 65
Audio
ID : 1
Format : MPEG Audio
Format version : Version 1
Format profile : Layer 3
Mode : Joint stereo
Mode extension : MS Stereo
Codec ID : 55
Codec ID/Hint : MP3
Duration : 1h 31mn
Bit rate mode : Constant
Bit rate : 128 Kbps
Channel count : 2 channels
Sampling rate : 44.1 KHz
Compression mode : Lossy
Stream size : 84.0 MiB (12%)
Alignment : Split accross interleaves
Interleave, duration : 40 ms (1.00 video frame)
Interleave, preload duration : 500 ms

Скриншот c названием фильма

Скриншоты

 
Показать сообщения:    

Текущее время: Сегодня 21:01

Часовой пояс: GMT



Вы не можете начинать темы
Вы не можете отвечать на сообщения
Вы не можете редактировать свои сообщения
Вы не можете удалять свои сообщения
Вы не можете голосовать в опросах
Вы не можете прикреплять файлы к сообщениям
Вы не можете скачивать файлы