Самый жестокий год / A Most Violent Year (Джей Си Чендор) [2014 г., боевик, триллер, драма, криминал, HDRip]

 
Автор Сообщение

AleksSin ®

Пол:

Стаж: 6 лет

Сообщений: 218



Награды: 4 (Подробнее)

Mega Seeder 2 (Количество: 1) Mega Seeder 3 (Количество: 1) Mega Seeder 1 (Количество: 1)
Торрент-статистика

Создавать темы 02-Апр-2015 22:53

[Цитировать]

Самый жестокий год / A Most Violent Year«The result is never in question, just the path you take to get there» Год выпуска: 2014
Страна: США
Жанр: боевик, триллер, драма, криминал
Продолжительность: 02:04:56
Перевод: Любительский (одноголосый) [Paul Bunyan]
Субтитры: нет
Режиссер: Джей Си Чендор
В ролях: Оскар Айзек, Джессика Честейн, Дэвид Ойелоуо, Алессандро Нивола, Альберт Брукс, Элиес Габел, Каталина Сандино Морено, Питер Герети, Кристофер Эбботт, Эшли Уильямс
Описание: События фильма разворачиваются преимущественно на Манхэттене начала 1980-х годов, когда был зафиксирован всплеск уровня преступности. Главный герой — иммигрант из латинской Америки, прибывший в США с амбициозными мечтами и вскоре действительно добившийся большого успеха в бизнесе. Однако уличная преступность, охватившая Нью-Йорк, коррупция и моральное разложение создают для него и его семьи большие проблемы.

Качество: HDRip (Исх. BDRip 720p)
Формат: AVI
Видео кодек: XviD
Аудио кодек: AC3
Видео: 720x304 (2.37:1), 23.976 fps, XviD build 73 ~1267 kbps avg, 0.24 bit/pixel
Аудио: 48 kHz, AC3 Dolby Digital, 3/2 (L,C,R,l,r) + LFE ch, ~384.00 kbps avg

MediaInfo

Общее
Полное имя : S:ФильмыСамый жестокий год. 2014. HDRip. 1.45 (AleksSin).avi
Формат : AVI
Формат/Информация : Audio Video Interleave
Размер файла : 1,45 Гбайт
Продолжительность : 2 ч. 4 м.
Общий поток : 1660 Кбит/сек
Программа кодирования : VirtualDubMod 1.5.10.3 | www.virtualdub-fr.org || (build 2550/release)
Библиотека кодирования : VirtualDubMod build 2550/release
Видео
Идентификатор : 0
Формат : MPEG-4 Visual
Профиль формата : Advanced Simple@L5
Параметр BVOP формата : 1
Параметр QPel формата : Нет
Параметр GMC формата : Без точки перехода
Параметр матрицы формата : Выборочная
Идентификатор кодека : XVID
Идентификатор кодека/Подсказка : XviD
Продолжительность : 2 ч. 4 м.
Битрейт : 1267 Кбит/сек
Ширина : 720 пикс.
Высота : 304 пикс.
Соотношение сторон : 2,35:1
Частота кадров : 23,976 кадр/сек
Цветовое пространство : YUV
Подвыборка цветности : 4:2:0
Битовая глубина : 8 бит
Тип развёртки : Прогрессивная
Метод сжатия : С потерями
Бит/(Пиксели*Кадры) : 0.241
Размер потока : 1,11 Гбайт (76%)
Библиотека кодирования : XviD 73
Аудио
Идентификатор : 1
Формат : AC-3
Формат/Информация : Audio Coding 3
Расширение режима : CM (complete main)
Идентификатор кодека : 2000
Продолжительность : 2 ч. 4 м.
Вид битрейта : Постоянный
Битрейт : 384 Кбит/сек
Каналы : 6 каналов
Расположение каналов : Front: L C R, Side: L R, LFE
Частота : 48,0 КГц
Битовая глубина : 16 бит
Метод сжатия : С потерями
Размер потока : 343 Мбайт (23%)
Выравнивание : Разделение по промежуткам
Продолжительность промежутка : 42 мс. (1,00 видеокадр)
Время предзагрузки промежутка : 500 ms

Скриншоты

[Профиль] [ЛС]
Показать сообщения:    

Текущее время: Сегодня 08:02

Часовой пояс: GMT



Вы не можете начинать темы
Вы не можете отвечать на сообщения
Вы не можете редактировать свои сообщения
Вы не можете удалять свои сообщения
Вы не можете голосовать в опросах
Вы не можете прикреплять файлы к сообщениям
Вы не можете скачивать файлы