Самые странные в мире / World's Weirdest [Сезоны 1-5, Серии 1-27 из ???] (Ник Паттерсон / Nick Patterson) [2011-2016 гг, Документальный, флора, фауна, HDTVRip] VО (АРК ТВ)

 
Автор Сообщение

Один 777 ®

Пол:

Стаж: 1 год 8 месяцев

Сообщений: 456

Откуда: Луцк



Награды: 7 (Подробнее)

Mega Seeder 3 (Количество: 1) Mega Seeder 4 (Количество: 1) За внесенный вклад в развитие сайта (Количество: 1)
Торрент-статистика

Создавать темы 10-Сен-2016 11:59

[Цитировать]

Самые странные в мире / World's Weirdest
Сезоны 1-5, Серии 1-27 из ???
Год выпуска: 2011-2016
Страна: Великобритания / NGC Network US
Жанр: Документальный, флора, фауна
Продолжительность: 27 х ~ 00:44:00
Перевод: Студийный (одноголосый закадровый) АРК ТВ
Субтитры: нет
Режиссер: Ник Паттерсон / Nick Patterson
Описание: Наш современный мир уже давно определил большинство норм нашей жизни – нормы поведения, нормы питания, нормы социальной жизни, другие нормы. И все, что не входит в определенные параметры считается как минимум странным. Но если копнуть глубже, то мы узнаем, что в нашем мире с соответствующими нормами очень много отклонений. И все дело в том, что природа совсем не спрашивает человека, когда создает все живое в мире. Поэтому существуют странные животные, существа со странным поведением. Именно о том, что выходит за пределы норм расскажет передача «Самые странные в мире».

Сэмпл: http://sendfile.su/1264459

Качество: HDTVRip
Формат: AVI
Видео кодек: XviD
Аудио кодек: AC3
Видео: 720x400 (1.80:1), 25 fps, XviD build 73 ~1285-1485 kbps avg, 0.19 bit/pixel
Аудио: 48 kHz, AC3 Dolby Digital, 2/0 (L,R) ch, ~192 kbps

Список серий

01. Развратники
02. Шокирующая еда
03. Животные - фрики
04. Странная любовь
05. Необычные фермы
06. Почти как у людей
07. Звериный паноптикум
08. Необычные части тела
09. Неожиданные нападения
10.Животные - хулиганы
11. Ползучие целители
12. Чудаки на суше
13. Чудаки в океане
14. Звериные баталии
15. Акулы
16. Знакомство с родителями
17. Выживальщики
18. Мутанты
19. Секс по дружбе
20. Под градусом
21. Странные детеныши
22. Эйнштейны животного мира
23. Чудаки в небе
24. Микропитомцы
25. XXL
26. Контрабанда животных
27. Уродство не порок

MediaInfo

Общее
Полное имя : G:\Samye.strannye.v.mire.2011-2015.HDTVRip.[Один 777]\01.avi
Формат : AVI
Формат/Информация : Audio Video Interleave
Размер файла : 500 Мбайт
Продолжительность : 44 м.
Общий поток : 1588 Кбит/сек
Программа кодирования : VirtualDubMod 1.5.10.3 | www.virtualdub-fr.org || (build 2550/release)
Библиотека кодирования : VirtualDubMod build 2550/release
Видео
Идентификатор : 0
Формат : MPEG-4 Visual
Профиль формата : Advanced Simple@L5
Параметр BVOP формата : 1
Параметр QPel формата : Нет
Параметр GMC формата : Без точки перехода
Параметр матрицы формата : Default (H.263)
Идентификатор кодека : XVID
Идентификатор кодека/Подсказка : XviD
Продолжительность : 44 м.
Битрейт : 1386 Кбит/сек
Ширина : 720 пикселей
Высота : 400 пикселей
Соотношение сторон : 16:9
Частота кадров : 25,000 кадров/сек
Цветовое пространство : YUV
Субдискретизация насыщенности : 4:2:0
Битовая глубина : 8 бит
Тип развёртки : Прогрессивная
Метод сжатия : С потерями
Бит/(Пиксели*Кадры) : 0.192
Размер потока : 436 Мбайт (87%)
Библиотека кодирования : XviD 73
Аудио
Идентификатор : 1
Формат : AC-3
Формат/Информация : Audio Coding 3
Расширение режима : CM (complete main)
Параметр Endianness формата : Big
Идентификатор кодека : 2000
Продолжительность : 44 м.
Вид битрейта : Постоянный
Битрейт : 192 Кбит/сек
Каналы : 2 канала
Расположение каналов : Front: L R
Частота : 48,0 КГц
Частота кадров : 31,250 кадров/сек (1536 spf)
Метод сжатия : С потерями
Размер потока : 60,4 Мбайт (12%)
Выравнивание : Разделение по промежуткам
Продолжительность промежутка : 40 мс. (1,00 видеокадр)
Время предзагрузки промежутка : 500 мс.

Скриншот c названием фильма

Скриншоты



Последний раз редактировалось: Один 777 (2016-10-30 07:00), всего редактировалось 2 раз(а)
[Профиль] [ЛС]

Один 777 ®

Пол:

Стаж: 1 год 8 месяцев

Сообщений: 456

Откуда: Луцк



Награды: 7 (Подробнее)

Mega Seeder 2 (Количество: 1) За внесенный вклад в развитие сайта (Количество: 1) Mega Seeder 4 (Количество: 1)
Торрент-статистика

Создавать темы 30-Окт-2016 06:54 (спустя 1 месяц 19 дней)

[Цитировать]

Добавлена 27 серия
[Профиль] [ЛС]
Показать сообщения:    

Текущее время: Сегодня 02:26

Часовой пояс: GMT



Вы не можете начинать темы
Вы не можете отвечать на сообщения
Вы не можете редактировать свои сообщения
Вы не можете удалять свои сообщения
Вы не можете голосовать в опросах
Вы не можете прикреплять файлы к сообщениям
Вы не можете скачивать файлы