Самые странные в мире / World\'s Weirdest (12 выпускoв) (Richard Kempsey) [2011-2013, Документальный цикл, познавательный, HDTV 1080i, RU, EN]

 
Автор Сообщение

TorrentFilm ®

Пол:

Стаж: 2 года

Сообщений: 7741



Награды: Нет

Торрент-статистика

Создавать темы 17-Дек-2014 02:30

[Цитировать]

Самые странные в мире / World's Weirdest
Год выпуска: 2011-2013
Страна: США
Студия: NGC Network US
Жанр: Документальный цикл, познавательный
Продолжительность: 00:44:00
Перевод: Студийный (одноголосый закадровый)
Доп. инфо о переводе: АРК•ТВ
Русские субтитры: нет
релиз: dean10
Режиссер: Richard Kempsey
Описание: Документальный сериал о самых странных животных на суше, в небе и в океане.
15.12.2014 _ добавил: выпуск. 12. Самые странные в мире. Чудаки на суше_HDTV 1080i_RU_EN
перезаливаем

Самые странные в мире01. Самые странные в мире_Развратники_HDTV 1080i_RU_EN

От львов и снежных макак до морских коньков, животные заставляют усомниться в идее гендерных ролей и границ, которые можно считать естественными.

02. Самые странные в мире. Шокирующая еда_HDTV 1080i_RU_EN

От кала мусангов до посткоитальных закусок и странных местных деликатесов, посмотрите, как животные и люди пойдут на все ради еды. Орнитологи на берегу озера в парке будут потрясены, увидев как пеликан проглотит одно-фунтового голубя целиком! Употребление сырых жаб может иметь смертельные последствия, но это не мешает одному смелому гурману перекусывать экзотическими деликатесами. Шокирующая еда возбудит аппетиты некоторых телезрителей, или вызовет отвращение...

03. Самые странные в мире_Животные-фрики_HDTV 1080i_RU_EN

Странные с виду животные, невероятные мутанты и шокирующие последствия травм ждут вас на этом параде чудаков.

04. Самые странные в мире_Странная любовь_HDTV 1080i_RU_EN

От рыб, меняющих пол, до грызунов, спаривающихся до смерти... Авторы фильма рассматривают наиболее странные способы передачи генов потомству.

05. Самые странные в мире_Необычные фермы_HDTV 1080i_RU_EN

От разведения съедобных насекомых до дойки пауков: побывайте на необычных, а зачастую и опасных фермах.

06. Самые странные в мире_Почти как у людей_HDTV 1080i_RU_EN

Наши аналогии с поведением людей, включая: голубей - верных мужей, дельфинов-гангстеров и пчел, попавших в беду из-за пьянства на работе

07. Самые странные в мире_Звериный паноптикум_HDTV 1080i_RU_EN

Коллекция разнообразных необычных существ, включая взрывающихся жаб, коал с отвратительной диетой и птенцов, защищающихся рвотой.

08. Самые странные в мире_Необычные части тела_HDTV 1080i_RU_EN

Документальный фильм "Самые странные в мире: Необычные части тела" познакомит вас с животными, обладающими самыми странными и шокирующими частями тела. Такие существа доказывают, что иногда реальность может быть страннее вымысла. Различные хищники используют различные органы чувств, чтобы выслеживать и ловить добычу, но некоторые странные существа довели эти таланты до крайности. Всем глазам для функционирования нужен свет, но это может стать проблемой, если вы живете на глубине 900 метров. В глубинах темной бездны в процессе эволюции у живых существ появились страннейшие глаза, которые улавливают слабейшие отблески света.

09. Самые странные в мире_Неожиданные нападения_HDTV 1080i_RU_EN

Будьте осторожны и всегда смотрите по сторонам. Странные создания, которые живут повсюду, могут напасть в любой момент.

10. Самые странные в мире_Животные-хулиганы_HDTV 1080i_RU_EN

Наверняка, ничего не бывает хуже, чем звери-проказники. Они ведут беспорядочные половые акты, теряют контроль над собой и делают многое другое. В дикой пироде не действует правило людского общества и когда природа и цивилизация сталкиваются, начинается хаос. Рискованные предприятия, отчаянные агрессоры, бесконтрольные пристрастия. Эти животные доказывают, что далеко не всегда их можно приручить. Это самые странные в мире животные-хулиганы.

11. Самые странные в мире_Ползучие целители_HDTV 1080i_RU_EN

Исследуйте потенциально целебные свойства некоторых внешне малопривлекательных представителей животного мира вместе с нами. Кровососущие, ядовитые, плотоядные... Они быстро начинают свой пир, вызывая у зрителей мурашки по коже. Однако эти создания исцеляют человеческое тело от многих заболеваний.

12. Самые странные в мире. Чудаки на суше_HDTV 1080i_RU_EN

Будьте осторожны. Смотрите по сторонам. Странные создания будь то где: на суше, в небе, на море – ждут возможность напасть. Причудливое оружие, поразительные защитные реакции. Все в опасности, где есть такие чудаки.
Тип релиза: HDTV 1080i
Контейнер: MKV
Видео: AVC, 1920x1080, (16:9), 25 fps, 10 500 kbps, 0.20 bit/pixel
Аудио#1: Russian, MP2, 48 kHz, 2ch; 192 kbps
Аудио#2: English, MP2, 48 kHz, 2ch; 192 kbps

MediaInfo

GeneralUnique ID : 150442617901981552201775772649952789693 (0x712E31BBDF223002CF54AC029E6A44BD)Complete name : C:\Самые странные в мире_HDTV 1080i_RU_EN\01. Самые странные в мире. Запреты мира животных_Развратники_HDTV 1080i_RU_EN.mkvFormat : MatroskaFormat version : Version 2File size : 3.42 GiBDuration : 44mn 0sOverall bit rate : 11.1 MbpsWriting application : Lavf53.31.100Writing library : Lavf53.31.100
VideoID : 1Format : AVCFormat/Info : Advanced Video CodecFormat profile : High@L4.0Format settings, CABAC : YesFormat settings, ReFrames : 4 framesCodec ID : V_MPEG4/ISO/AVCDuration : 44mn 0sBit rate : 10.5 MbpsWidth : 1 920 pixelsHeight : 1 080 pixelsDisplay aspect ratio : 16:9Frame rate mode : ConstantFrame rate : 25.000 fpsStandard : ComponentColor space : YUVChroma subsampling : 4:2:0Bit depth : 8 bitsScan type : InterlacedScan order : Top Field FirstBits/(Pixel*Frame) : 0.203Stream size : 3.23 GiB (95%)Default : YesForced : NoColor primaries : BT.709Transfer characteristics : BT.709Matrix coefficients : BT.709
Audio #1ID : 2Format : MPEG AudioFormat version : Version 1Format profile : Layer 2Codec ID : A_MPEG/L2Codec ID/Hint : MP2Duration : 44mn 0sBit rate mode : ConstantBit rate : 192 KbpsChannel(s) : 2 channelsSampling rate : 48.0 KHzCompression mode : LossyStream size : 60.4 MiB (2%)Language : RussianDefault : YesForced : No
Audio #2ID : 3Format : MPEG AudioFormat version : Version 1Format profile : Layer 2Codec ID : A_MPEG/L2Codec ID/Hint : MP2Duration : 44mn 0sBit rate mode : ConstantBit rate : 192 KbpsChannel(s) : 2 channelsSampling rate : 48.0 KHzCompression mode : LossyStream size : 60.4 MiB (2%)Language : EnglishDefault : NoForced : No

Скриншоты

[Профиль] [ЛС]
Показать сообщения:    

Текущее время: Сегодня 09:04

Часовой пояс: GMT



Вы не можете начинать темы
Вы не можете отвечать на сообщения
Вы не можете редактировать свои сообщения
Вы не можете удалять свои сообщения
Вы не можете голосовать в опросах
Вы не можете прикреплять файлы к сообщениям
Вы не можете скачивать файлы