Сампо из Лапландии (Ефрем Пружанский) [1985 г., мультфильм, DVB]

 
Автор Сообщение

painkiller ®

Стаж: 2 года 3 месяца

Сообщений: 582



Награды: Нет

Торрент-статистика

Создавать темы 27-Авг-2014 19:41

[Цитировать]

Сампо из Лапландии
Жанр: мультфильм
Год выпуска: 1985
Продолжительность: 00:09:52
Режиссёр: Ефрем Пружанский
Описание: мультфильм о храбром маленьком мальчике Сампо, который отправился в горы, чтобы встретиться с могучим и злым великаном ...
Доп. информация: по мотивам известной сказки финского писателя Закариаса Топелиуса «Сампо-лопаренок»

Трансляция спутникового канала: "Перец"
Качество видео: DVB
Формат видео: MPEG-PS
Видео: MPEG2 Video, 720x576, 25 fps, 4700 kbps
Аудио: MPEG Audio, 2 сh, 48 kHz, 192 kbps

MediaInfo

D:\Сампо из Лапландии. (1985)_DVB by SLuMeP.mpg
General
Complete name : D:\Сампо из Лапландии. (1985)_DVB by SLuMeP.mpg
Format : MPEG-PS
File size : 353 MiB
Duration : 9mn 52s
Overall bit rate mode : Variable
Overall bit rate : 4 999 Kbps
Video #224
ID : 224 (0xE0)
Format : MPEG Video
Format version : Version 2
Format profile : Main@Main
Format settings, BVOP : Yes
Format settings, Matrix : Custom
Format settings, GOP : M=1, N=38
Duration : 9mn 52s
Bit rate mode : Variable
Bit rate : 4 707 Kbps
Maximum bit rate : 15.0 Mbps
Width : 720 pixels
Height : 576 pixels
Display aspect ratio : 4:3
Frame rate : 25.000 fps
Standard : PAL
Color space : YUV
Chroma subsampling : 4:2:0
Bit depth : 8 bits
Scan type : Interlaced
Scan order : Top Field First
Compression mode : Lossy
Bits/(Pixel*Frame) : 0.454
Stream size : 333 MiB (94%)
Audio #192
ID : 192 (0xC0)
Format : MPEG Audio
Format version : Version 1
Format profile : Layer 2
Duration : 9mn 52s
Bit rate mode : Constant
Bit rate : 192 Kbps
Channel(s) : 2 channels
Sampling rate : 48.0 KHz
Compression mode : Lossy
Stream size : 13.6 MiB (4%)

Скриншоты


[Профиль] [ЛС]
Показать сообщения:    

Текущее время: Сегодня 02:16

Часовой пояс: GMT



Вы не можете начинать темы
Вы не можете отвечать на сообщения
Вы не можете редактировать свои сообщения
Вы не можете удалять свои сообщения
Вы не можете голосовать в опросах
Вы не можете прикреплять файлы к сообщениям
Вы не можете скачивать файлы