Самолёты: Огонь и вода / Planes: Fire and Rescue (2014) BDRip 1080p от ExKinoRay | Лицензия

 
Автор Сообщение

sergej644 ®

Пол:

Стаж: 4 года 11 месяцев

Сообщений: 6046

Откуда: Soviet Union



Награды: Нет

Торрент-статистика

Создавать темы 23-Ноя-2014 12:19

[Цитировать]

Информация о фильме
Название: Самолеты: Огонь и вода
Оригинальное название: Planes: Fire and Rescue
Год выпуска: 2014
Жанр: Мультфильм, комедия, приключения, семейный
Выпущено: США, DisneyToon Studios, Prana Studios
Режиссер: Роберт Ганнавей
В ролях: Дейн Кук, Джули Боуэн, Дерек Бланкеншип, Дэнни Пардо
О фильме: Самолетик Дасти — который стал уже легендой воздушных гонок вскоре узнает, что его двигатель сильно повреждён, и он никогда не может больше участвовать в скоростных воздушных гонках. Дасти ищет себе новое занятие и знакомится с мужественной пожарно-спасательной командой, которой руководит ветеран авиации вертолёт по имени Ренждер. Узнав насколько тяжела и опасна работа пожарной авиации Дасти поймёт, что такое настоящий героизм и самоотдача и сам захочет стать спасателем.

Файл
Качество: BDRip (1080p)
Видео: MPEG-4 AVC, 7777 Кбит/с, 1920x804, 23.976 кадр/с
Аудио: Русский (АС3, 6 ch, 640 Кбит/с), английский (DTS, 6 ch, 1509 Кбит/с)
Размер: 5.80 ГБ
Продолжительность: 01:23:38
Перевод: Дублированный
Субтитры: Aнглийские
Сохранены оригинальные чаптеры как на Blu-Ray.
Озвучивание - Дублированное (Лицензия)

x264

x264 [info]: frame I:1136 Avg QP:10.31 size:397061
x264 [info]: frame P:36659 Avg QP:15.04 size: 76175
x264 [info]: frame B:82527 Avg QP:19.64 size: 19814
x264 [info]: consecutive B-frames: 5.5% 10.7% 24.7% 25.6% 14.0% 15.2% 1.9% 1.0% 0.4% 0.8%
x264 [info]: mb I I16..4: 21.0% 38.5% 40.4%
x264 [info]: mb P I16..4: 3.3% 16.1% 3.7% P16..4: 20.1% 19.1% 9.1% 4.5% 1.1% skip:22.9%
x264 [info]: mb B I16..4: 0.7% 3.0% 0.7% B16..8: 23.7% 14.3% 2.5% direct: 5.0% skip:50.0% L0:37.5% L1:44.2% BI:18.4%
x264 [info]: 8x8 transform intra:66.5% inter:39.8%
x264 [info]: direct mvs spatial:92.6% temporal:7.4%
x264 [info]: coded y,uvDC,uvAC intra: 77.0% 88.1% 70.6% inter: 19.1% 20.7% 12.9%
x264 [info]: i16 v,h,dc,p: 14% 22% 16% 49%
x264 [info]: i8 v,h,dc,ddl,ddr,vr,hd,vl,hu: 11% 18% 14% 7% 8% 8% 11% 9% 14%
x264 [info]: i4 v,h,dc,ddl,ddr,vr,hd,vl,hu: 27% 20% 13% 5% 7% 6% 8% 6% 8%
x264 [info]: i8c dc,h,v,p: 34% 36% 17% 14%
x264 [info]: Weighted P-Frames: Y:2.8% UV:2.1%
x264 [info]: ref P L0: 63.5% 9.5% 14.3% 6.9% 4.3% 1.4% 0.0%
x264 [info]: ref B L0: 84.3% 10.7% 4.0% 0.9%
x264 [info]: ref B L1: 92.2% 7.8%
x264 [info]: kb/s:7777.34

Инфо-файл

Общее
Уникальный идентификатор : 243094276254492756143692202403521983961 (0xB6E2412D1F663F86A1DF6CA3B3F575D9)
Полное имя : D:ЗагрузкиPlanes.2014.x264.BDRip.(1080p).ExKinoRay.mkv
Формат : Matroska
Версия формата : Version 2
Размер файла : 5,80 Гбайт
Продолжительность : 1 ч. 23 м.
Общий поток : 9929 Кбит/сек
Название фильма : Самолеты: Огонь и вода.2014.Rip by: ollan
Дата кодирования : UTC 2014-11-23 10:20:57
Программа кодирования : mkvmerge v5.6.0 ('Kenya Kane') built on May 27 2012 16:44:04
Библиотека кодирования : libebml v1.2.3 + libmatroska v1.3.0
Видео
Идентификатор : 1
Формат : AVC
Формат/Информация : Advanced Video Codec
Профиль формата : High@L4.1
Параметр CABAC формата : Да
Параметр ReFrames формата : 5 кадров
Идентификатор кодека : V_MPEG4/ISO/AVC
Продолжительность : 1 ч. 23 м.
Битрейт : 7777 Кбит/сек
Ширина : 1920 пикселей
Высота : 804 пикселя
Соотношение сторон : 2,40:1
Режим частоты кадров : Постоянный
Частота кадров : 23,976 кадра/сек
Цветовое пространство : YUV
Субдискретизация насыщенности : 4:2:0
Битовая глубина : 8 бит
Тип развёртки : Прогрессивная
Бит/(Пиксели*Кадры) : 0.210
Размер потока : 4,43 Гбайт (76%)
Библиотека кодирования : x264 core 125 r2200 999b753
Настройки программы : cabac=1 / ref=5 / deblock=1:-3:-3 / analyse=0x3:0x133 / me=umh / subme=11 / psy=1 / psy_rd=1.00:0.10 / mixed_ref=1 / me_range=32 / chroma_me=1 / trellis=2 / 8x8dct=1 / cqm=0 / deadzone=21,11 / fast_pskip=0 / chroma_qp_offset=-3 / threads=12 / lookahead_threads=2 / sliced_threads=0 / nr=0 / decimate=0 / interlaced=0 / bluray_compat=0 / constrained_intra=0 / bframes=9 / b_pyramid=2 / b_adapt=2 / b_bias=0 / direct=3 / weightb=1 / open_gop=0 / weightp=2 / keyint=240 / keyint_min=23 / scenecut=40 / intra_refresh=0 / rc_lookahead=60 / rc=2pass / mbtree=1 / bitrate=7777 / ratetol=1.0 / qcomp=0.60 / qpmin=0 / qpmax=69 / qpstep=4 / cplxblur=20.0 / qblur=0.5 / ip_ratio=1.40 / aq=1:1.00
Язык : English
Default : Да
Forced : Нет
Аудио #1
Идентификатор : 2
Формат : AC-3
Формат/Информация : Audio Coding 3
Расширение режима : CM (complete main)
Параметр Endianness формата : Big
Идентификатор кодека : A_AC3
Продолжительность : 1 ч. 23 м.
Вид битрейта : Постоянный
Битрейт : 640 Кбит/сек
Каналы : 6 каналов
Расположение каналов : Front: L C R, Side: L R, LFE
Частота : 48,0 КГц
Битовая глубина : 16 бит
Метод сжатия : С потерями
Размер потока : 383 Мбайт (6%)
Заголовок : Дублированный (Лицнзия)
Язык : Russian
Default : Да
Forced : Нет
Аудио #2
Идентификатор : 3
Формат : DTS
Формат/Информация : Digital Theater Systems
Режим : 16
Параметр Endianness формата : Big
Идентификатор кодека : A_DTS
Продолжительность : 1 ч. 23 м.
Вид битрейта : Постоянный
Битрейт : 1509 Кбит/сек
Каналы : 6 каналов
Расположение каналов : Front: L C R, Side: L R, LFE
Частота : 48,0 КГц
Битовая глубина : 24 бит
Метод сжатия : С потерями
Размер потока : 903 Мбайт (15%)
Язык : English
Default : Нет
Forced : Нет
Текст #1
Идентификатор : 4
Формат : UTF-8
Идентификатор кодека : S_TEXT/UTF8
Идентификатор кодека/Информация : UTF-8 Plain Text
Заголовок : Forced
Язык : Russian
Default : Да
Forced : Нет
Текст #2
Идентификатор : 5
Формат : UTF-8
Идентификатор кодека : S_TEXT/UTF8
Идентификатор кодека/Информация : UTF-8 Plain Text
Заголовок : Full
Язык : Russian
Default : Нет
Forced : Нет
Текст #3
Идентификатор : 6
Формат : UTF-8
Идентификатор кодека : S_TEXT/UTF8
Идентификатор кодека/Информация : UTF-8 Plain Text
Заголовок : Full
Язык : English
Default : Нет
Forced : Нет
Меню
00:00:00.000 : en:Chapter 01
00:03:27.790 : en:Chapter 02
00:07:48.593 : en:Chapter 03
00:12:36.005 : en:Chapter 04
00:17:38.849 : en:Chapter 05
00:22:55.165 : en:Chapter 06
00:27:45.288 : en:Chapter 07
00:32:37.205 : en:Chapter 08
00:35:24.789 : en:Chapter 09
00:38:31.017 : en:Chapter 10
00:41:38.287 : en:Chapter 11
00:47:21.046 : en:Chapter 12
00:55:00.714 : en:Chapter 13
00:57:29.028 : en:Chapter 14
01:00:33.880 : en:Chapter 15
01:05:22.710 : en:Chapter 16
01:09:07.685 : en:Chapter 17
01:13:55.264 : en:Chapter 18
01:23:38.263 : en:Chapter 19

Скриншоты



Релиз от: Rip by:
[Профиль] [ЛС]
Кто просматривает тему:

Форум Тема Автор Размер
Программы [Справочник] Билеты на самолет - авиабилеты v1.0 [Android 2.3, Multi] TorrentFilm 4 MB
Разная литература Бруно Патиньи | Самолеты. Военная авиация. Энциклопедия (2014) [PDF] достали все 55 MB
Телепередачи День космических историй. Хроники пропавшего самолета (2016) SATRip достали все 647 MB
R.G.TorrentFilm Video Легендарные самолеты (Андрей Кулясов, Алексей Терёшкин) (2 сезон, серии 1-8 из 8) [2015 г., Документальный, авиация, IPTVRip] Один 777 3.38 GB
R.G.TorrentFilm Video Легендарные самолеты, вертолёты (1 сезон, серии 1-7 из 7) [2014 г., Документальный, авиация, SATRip] Один 777 2.44 GB
Отечественные мультфильмы Моя мама - самолёт (Юлия Аронова) [2013, рисованный мультфильм, WEBRip-AVC] TorrentFilm 155 MB
R.G.TorrentFilm Video Мясищев, несколько самолётов и вся жизнь (Александр Марутян) [2010 г., Документальный, авиация, история, биография, SATRip] Один 777 439 MB
Научная и техническая литература Николай Якубович - Все самолеты-разведчики СССР. «Глаза» армии и флота (2016) PDF достали все 15 MB
Показать сообщения:    

Текущее время: Сегодня 12:08

Часовой пояс: GMT



Вы не можете начинать темы
Вы не можете отвечать на сообщения
Вы не можете редактировать свои сообщения
Вы не можете удалять свои сообщения
Вы не можете голосовать в опросах
Вы не можете прикреплять файлы к сообщениям
Вы не можете скачивать файлы