Самолеты: Огонь и вода / Planes: Fire and Rescue (2014) BDRip-AVC от MediaClub | D | Лицензия

 
Автор Сообщение

sergej644 ®

Пол:

Стаж: 4 года 11 месяцев

Сообщений: 6044

Откуда: Soviet Union



Награды: Нет

Торрент-статистика

Создавать темы 11-Ноя-2014 09:26

[Цитировать]

Информация о фильме
Название: Самолеты: Огонь и вода
Оригинальное название: Planes: Fire and Rescue
Год выпуска: 2014
Жанр: Мультфильм, комедия, приключения, семейный, полнометражный
Режиссер: Роберт Ганнавей
В ролях: Дэйн Кук, Эд Харрис, Джули Боуэн, Кёртис Армстронг, Джон Майкл Хиггинс, Хэл Холбрук, Уэс Стьюди, Брэд Гэррет, Тери Хэтчер, Стейси Кич
Описание: Самолетик Дасти — который стал уже легендой воздушных гонок вскоре узнает, что его двигатель сильно повреждён, и он никогда не может больше участвовать в скоростных воздушных гонках. Дасти ищет себе новое занятие и знакомится с мужественной пожарно-спасательной командой, которой руководит ветеран авиации вертолёт по имени Ренждер. Узнав насколько тяжела и опасна работа пожарной авиации Дасти поймёт, что такое настоящий героизм и самоотдача и сам захочет стать спасателем.

Выпущено: США / DisneyToon Studios, Prana Studios
Продолжительность: 01:23:38
Перевод: Дублированный
Файл
Качество: BDRip (AVC)
Видео: MPEG-4 AVC, 2200 Кбит/с, 1024x428, 23.976 кадр/с
Аудио #1: Русский (AC3, 6 ch, 448 Кбит/с) / Дублированный (Лицензия)
Аудио #2: Английский (AC3, 6 ch, 448 Кбит/с)
Субтитры: Русские (форсированные, полные), английские (full, SDH)
Семпл

Скриншоты

MI

Общее
Уникальный идентификатор : 173012102229587457332006211648462973513 (0x8228EB3943AD32B5A2FE61A6D06AEA49)
Полное имя : D:Mои раздачиSamolety-Ogon'.i.voda.2014.BDRip.(AVC)-MediaClub.mkv
Формат : Matroska
Версия формата : Version 4 / Version 2
Размер файла : 1,81 Гбайт
Продолжительность : 1 ч. 23 м.
Общий поток : 3098 Кбит/сек
Название фильма : -=MediaClub-kaspr=-
Дата кодирования : UTC 2014-11-11 07:13:45
Программа кодирования : mkvmerge v6.9.1 ('Blue Panther') 64bit built on Apr 18 2014 18:23:38
Библиотека кодирования : libebml v1.3.0 + libmatroska v1.4.1
Видео
Идентификатор : 1
Формат : AVC
Формат/Информация : Advanced Video Codec
Профиль формата : High@L4.1
Параметр CABAC формата : Да
Параметр ReFrames формата : 10 кадров
Идентификатор кодека : V_MPEG4/ISO/AVC
Продолжительность : 1 ч. 23 м.
Битрейт : 2200 Кбит/сек
Ширина : 1024 пикселя
Высота : 428 пикселей
Соотношение сторон : 2,40:1
Режим частоты кадров : Постоянный
Частота кадров : 23,976 кадра/сек
Цветовое пространство : YUV
Субдискретизация насыщенности : 4:2:0
Битовая глубина : 8 бит
Тип развёртки : Прогрессивная
Бит/(Пиксели*Кадры) : 0.209
Размер потока : 1,25 Гбайт (69%)
Заголовок : -=MediaClub-kaspr=-
Библиотека кодирования : x264 core 142 r2431+42 c69a006 tMod [8-bit@4:2:0 X86_64]
Настройки программы : cabac=1 / ref=10 / deblock=1:-3:-3 / analyse=0x3:0x113 / me=umh / subme=11 / psy=1 / fade_compensate=0.00 / psy_rd=1.00:0.00 / mixed_ref=1 / me_range=32 / chroma_me=1 / trellis=2 / 8x8dct=1 / cqm=0 / deadzone=21,11 / fast_pskip=0 / chroma_qp_offset=-2 / threads=12 / lookahead_threads=3 / sliced_threads=0 / nr=0 / decimate=0 / interlaced=0 / bluray_compat=0 / constrained_intra=0 / fgo=0 / bframes=14 / b_pyramid=2 / b_adapt=2 / b_bias=0 / direct=3 / weightb=1 / open_gop=0 / weightp=2 / keyint=240 / keyint_min=23 / scenecut=40 / intra_refresh=0 / rc_lookahead=40 / rc=2pass / mbtree=1 / bitrate=2200 / ratetol=1.0 / qcomp=0.60 / qpmin=0:0:0 / qpmax=69:69:69 / qpstep=4 / cplxblur=20.0 / qblur=0.5 / ip_ratio=1.40 / aq=4:0.80 / aq-sensitivity=10.00 / aq-factor=1.00:1.00:1.00 / aq2=0 / aq3=0
Default : Да
Forced : Нет
Аудио #1
Идентификатор : 2
Формат : AC-3
Формат/Информация : Audio Coding 3
Расширение режима : CM (complete main)
Параметр Endianness формата : Big
Идентификатор кодека : A_AC3
Продолжительность : 1 ч. 23 м.
Вид битрейта : Постоянный
Битрейт : 448 Кбит/сек
Каналы : 6 каналов
Расположение каналов : Front: L C R, Side: L R, LFE
Частота : 48,0 КГц
Битовая глубина : 16 бит
Метод сжатия : С потерями
Размер потока : 268 Мбайт (14%)
Заголовок : Dub
Язык : Russian
Default : Да
Forced : Нет
Аудио #2
Идентификатор : 3
Формат : AC-3
Формат/Информация : Audio Coding 3
Расширение режима : CM (complete main)
Параметр Endianness формата : Big
Идентификатор кодека : A_AC3
Продолжительность : 1 ч. 23 м.
Вид битрейта : Постоянный
Битрейт : 448 Кбит/сек
Каналы : 6 каналов
Расположение каналов : Front: L C R, Side: L R, LFE
Частота : 48,0 КГц
Битовая глубина : 16 бит
Метод сжатия : С потерями
Размер потока : 268 Мбайт (14%)
Язык : English
Default : Нет
Forced : Нет
Текст #1
Идентификатор : 4
Формат : UTF-8
Идентификатор кодека : S_TEXT/UTF8
Идентификатор кодека/Информация : UTF-8 Plain Text
Заголовок : Forced
Язык : Russian
Default : Да
Forced : Нет
Текст #2
Идентификатор : 5
Формат : UTF-8
Идентификатор кодека : S_TEXT/UTF8
Идентификатор кодека/Информация : UTF-8 Plain Text
Заголовок : Full
Язык : Russian
Default : Нет
Forced : Нет
Текст #3
Идентификатор : 6
Формат : UTF-8
Идентификатор кодека : S_TEXT/UTF8
Идентификатор кодека/Информация : UTF-8 Plain Text
Заголовок : Full
Язык : English
Default : Нет
Forced : Нет
Текст #4
Идентификатор : 7
Формат : UTF-8
Идентификатор кодека : S_TEXT/UTF8
Идентификатор кодека/Информация : UTF-8 Plain Text
Заголовок : SDH
Язык : English
Default : Нет
Forced : Нет
Меню
00:00:00.000 : en:Chapter 01
00:03:27.788 : en:Chapter 02
00:07:48.593 : en:Chapter 03
00:12:36.004 : en:Chapter 04
00:17:38.848 : en:Chapter 05
00:22:55.164 : en:Chapter 06
00:27:45.288 : en:Chapter 07
00:32:37.204 : en:Chapter 08
00:35:24.788 : en:Chapter 09
00:38:31.015 : en:Chapter 10
00:41:38.286 : en:Chapter 11
00:47:21.045 : en:Chapter 12
00:55:00.712 : en:Chapter 13
00:57:29.027 : en:Chapter 14
01:00:33.880 : en:Chapter 15
01:05:22.710 : en:Chapter 16
01:09:07.685 : en:Chapter 17
01:13:55.264 : en:Chapter 18
Релиз: |
[Профиль] [ЛС]
Кто просматривает тему:

Форум Тема Автор Размер
Программы [Справочник] Билеты на самолет - авиабилеты v1.0 [Android 2.3, Multi] TorrentFilm 4 MB
Разная литература Бруно Патиньи | Самолеты. Военная авиация. Энциклопедия (2014) [PDF] достали все 55 MB
Телепередачи День космических историй. Хроники пропавшего самолета (2016) SATRip достали все 647 MB
R.G.TorrentFilm Video Легендарные самолеты (Андрей Кулясов, Алексей Терёшкин) (2 сезон, серии 1-8 из 8) [2015 г., Документальный, авиация, IPTVRip] Один 777 3.38 GB
R.G.TorrentFilm Video Легендарные самолеты, вертолёты (1 сезон, серии 1-7 из 7) [2014 г., Документальный, авиация, SATRip] Один 777 2.44 GB
Отечественные мультфильмы Моя мама - самолёт (Юлия Аронова) [2013, рисованный мультфильм, WEBRip-AVC] TorrentFilm 155 MB
R.G.TorrentFilm Video Мясищев, несколько самолётов и вся жизнь (Александр Марутян) [2010 г., Документальный, авиация, история, биография, SATRip] Один 777 439 MB
Научная и техническая литература Николай Якубович - Все самолеты-разведчики СССР. «Глаза» армии и флота (2016) PDF достали все 15 MB
Показать сообщения:    

Текущее время: Сегодня 12:13

Часовой пояс: GMT



Вы не можете начинать темы
Вы не можете отвечать на сообщения
Вы не можете редактировать свои сообщения
Вы не можете удалять свои сообщения
Вы не можете голосовать в опросах
Вы не можете прикреплять файлы к сообщениям
Вы не можете скачивать файлы