Самолеты: Огонь и вода / Planes: Fire and Rescue (2014) BDRip

 
Автор Сообщение

sergej644 ®

Пол:

Стаж: 4 года 11 месяцев

Сообщений: 6044

Откуда: Soviet Union



Награды: Нет

Торрент-статистика

Создавать темы 28-Окт-2014 22:58

[Цитировать]

-Самолеты: Огонь и вода / Planes: Fire and Rescue (2014) BDRip
«When others fly out, heroes fly in»
- Год выпуска: 2014
Производство: США
Жанр: Мультфильм, комедия, приключения, семейный, полнометражный
Перевод: Дублированный |iTunes Russia|
Субтитры: Отдельным файлом (*.srt)
Язык субтитров: Русские (форсированные, полные), английские (full, SDH)
Режиссер: Роберт Ганнавей
Продюсер: Джон Лассетер
Актеры: Дэйн Кук, Эд Харрис, Джули Боуэн, Кёртис Армстронг, Джон Майкл Хиггинс, Хэл Холбрук, Уэс Стьюди, Брэд Гэррет, Тери Хэтчер, Стейси Кич
Описание фильма:
Самолетик Дасти, который стал уже легендой воздушных гонок, вскоре узнает, что его двигатель сильно повреждён, и он никогда не может больше участвовать в скоростных воздушных гонках. Дасти ищет себе новое занятие и знакомится с мужественной пожарно-спасательной командой, которой руководит ветеран авиации вертолёт по имени Ренждер. Узнав, насколько тяжела и опасна работа пожарной авиации, Дасти поймёт, что такое настоящий героизм и самоотдача, и сам захочет стать спасателем.-
Дата мировой премьеры: 15 июля 2014
Дата российской премьеры: 21 августа 2014, «WDSSPR»
Дата выхода DVD релиза: 18 ноября 2014, «Уолт Дисней Компани СНГ»-Релиз группа: (New-Team)
Автор релиза: Yarmak23-Продолжительность:
Качество видео: BDRip |исх. BDRemux 1080p|
Видео: 688x288 (2.40:1), 23.976 fps, XviD 65 ~981 kbps avg, 0.206 bit/pixel
Аудио #1: 48 kHz, MPEG Layer 3, 2 ch, 128.00 kbps Constant |Русский / Дубляж, iTunes Russia|
Аудио #2: 48 kHz, MPEG Layer 3, 2 ch, 128.00 kbps Constant |Английский / Оригинал|
Скачать: Сэмпл

MediaInfo

General
Complete name : Samolety.2014.D.BDRip.745MB_New-team_by_Yarmak23.avi
Format : AVI
Format/Info : Audio Video Interleave
File size : 748 MiB
Duration : 1h 23mn
Overall bit rate : 1 251 Kbps
Writing application : VirtualDubModRus 1.5.10.2 (build 2542/release)
Writing library : VirtualDubMod build 2542/release
Video
ID : 0
Format : MPEG-4 Visual
Format profile : Advanced Simple@L5
Format settings, BVOP : 1
Format settings, QPel : No
Format settings, GMC : No warppoints
Format settings, Matrix : Custom
Codec ID : XVID
Codec ID/Hint : XviD
Duration : 1h 23mn
Bit rate : 981 Kbps
Width : 688 pixels
Height : 288 pixels
Display aspect ratio : 2.40:1
Frame rate : 23.976 fps
Color space : YUV
Chroma subsampling : 4:2:0
Bit depth : 8 bits
Scan type : Progressive
Compression mode : Lossy
Bits/(Pixel*Frame) : 0.206
Stream size : 587 MiB (78%)
Writing library : XviD 65
Audio #1
ID : 1
Format : MPEG Audio
Format version : Version 1
Format profile : Layer 3
Codec ID : 55
Codec ID/Hint : MP3
Duration : 1h 23mn
Bit rate mode : Constant
Bit rate : 128 Kbps
Channel(s) : 2 channels
Sampling rate : 48.0 KHz
Compression mode : Lossy
Stream size : 76.6 MiB (10%)
Alignment : Aligned on interleaves
Interleave, duration : 42 ms (1.00 video frame)
Interleave, preload duration : 504 ms
Writing library : LAME3.99r
Encoding settings : -m s -V 4 -q 2 -lowpass 17 -b 128
Audio #2
ID : 2
Format : MPEG Audio
Format version : Version 1
Format profile : Layer 3
Codec ID : 55
Codec ID/Hint : MP3
Duration : 1h 23mn
Bit rate mode : Constant
Bit rate : 128 Kbps
Channel(s) : 2 channels
Sampling rate : 48.0 KHz
Compression mode : Lossy
Stream size : 76.6 MiB (10%)
Alignment : Aligned on interleaves
Interleave, duration : 42 ms (1.00 video frame)
Interleave, preload duration : 504 ms
Writing library : LAME3.99r
Encoding settings : -m s -V 4 -q 2 -lowpass 17 -b 128
Скриншоты:

Время раздачи: 24/7 (до 7 скачавших)
[Профиль] [ЛС]
Кто просматривает тему:

Форум Тема Автор Размер
Программы [Справочник] Билеты на самолет - авиабилеты v1.0 [Android 2.3, Multi] TorrentFilm 4 MB
Разная литература Бруно Патиньи | Самолеты. Военная авиация. Энциклопедия (2014) [PDF] достали все 55 MB
Телепередачи День космических историй. Хроники пропавшего самолета (2016) SATRip достали все 647 MB
R.G.TorrentFilm Video Легендарные самолеты (Андрей Кулясов, Алексей Терёшкин) (2 сезон, серии 1-8 из 8) [2015 г., Документальный, авиация, IPTVRip] Один 777 3.38 GB
R.G.TorrentFilm Video Легендарные самолеты, вертолёты (1 сезон, серии 1-7 из 7) [2014 г., Документальный, авиация, SATRip] Один 777 2.44 GB
Отечественные мультфильмы Моя мама - самолёт (Юлия Аронова) [2013, рисованный мультфильм, WEBRip-AVC] TorrentFilm 155 MB
R.G.TorrentFilm Video Мясищев, несколько самолётов и вся жизнь (Александр Марутян) [2010 г., Документальный, авиация, история, биография, SATRip] Один 777 439 MB
Научная и техническая литература Николай Якубович - Все самолеты-разведчики СССР. «Глаза» армии и флота (2016) PDF достали все 15 MB
Показать сообщения:    

Текущее время: Сегодня 10:09

Часовой пояс: GMT



Вы не можете начинать темы
Вы не можете отвечать на сообщения
Вы не можете редактировать свои сообщения
Вы не можете удалять свои сообщения
Вы не можете голосовать в опросах
Вы не можете прикреплять файлы к сообщениям
Вы не можете скачивать файлы