Самое главное (2015) SATRip

 
Автор Сообщение

достали все ®

Пол:

Стаж: 1 год 8 месяцев

Сообщений: 6515



Награды: 12 (Подробнее)

Mega Seeder 3 (Количество: 1) Top Releaser 2 (Количество: 1) Top Releaser 3 (Количество: 1)
Торрент-статистика

Создавать темы 11-Окт-2015 11:56

[Цитировать]

Информация о фильме
Название: Самое главное
Год выхода: 2015
Жанр: Мелодрама
Режиссер: Александр Ефремов
В ролях: Олеся Грибок, Борис Хвошнянский, Алёна Ивченко, Павел Яскевич, Иван Стрельцов, Юлианна Михневич, Тамара Миронова, Полина Стефанович, Алексей Юцкевич
О фильме:
Даше 20 лет, она живет в провинциальном городе и работает с детьми в художественно-образовательном центре. У Даши есть бабушка, а больше никого: мама умерла несколько лет назад, а о своем отце Даша знает только то, что он погиб еще до ее рождения…
Но наступает момент, когда бабушка решается открыть Даше правду. Оказывается, отец Даши вовсе не погиб… Он жив-здоров, живет в Москве и не знает, что у него есть дочь…
Даша едет в Москву, чтобы познакомиться со своим отцом – Владимиром Бестужевым.
Владимир - бизнесмен, владелец ресторана. Он красив, уверен в себе и относится к категории мужчин «без возраста». Владимир пользуется большим успехом у женщин, но женат никогда не был, предпочитая легкие, свободные отношения, без каких-либо обязательств…
Появление взрослой дочери отнюдь не радует Владимира, для него это проблема, которую надо решать… Станут ли отец и дочь по-настоящему родными? Сможет ли Владимир по-новому взглянуть на свою жизнь и понять, что для него самое главное?
Страна: Россия
Продолжительность: 01:31:58
Перевод: Не требуется
Файл
Кодек: XviD
Качество: SATRip
Видео: 720x400 25.00fps 1800kbps
Звук: 48000Hz stereo 192kbps

Скриншоты

MediaInfo

Общее
Полное имя : D:Samoe.Glavnoe.SATRip.avi
Формат : AVI
Формат/Информация : Audio Video Interleave
Размер файла : 1,29 Гбайт
Продолжительность : 1 ч. 32 м.
Общий поток : 2002 Кбит/сек
Программа кодирования : VirtualDubMod 1.5.10.3 | www.virtualdub-fr.org || (build 2550/release)
Библиотека кодирования : VirtualDub build 35491/release
Видео
Идентификатор : 0
Формат : MPEG-4 Visual
Профиль формата : Advanced Simple@L5
Параметр BVOP формата : 2
Параметр QPel формата : Нет
Параметр GMC формата : Без точки перехода
Параметр матрицы формата : Default (H.263)
Идентификатор кодека : XVID
Идентификатор кодека/Подсказка : XviD
Продолжительность : 1 ч. 32 м.
Битрейт : 1800 Кбит/сек
Ширина : 720 пикселей
Высота : 400 пикселей
Соотношение сторон : 16:9
Частота кадров : 25,000 кадров/сек
Цветовое пространство : YUV
Субдискретизация насыщенности : 4:2:0
Битовая глубина : 8 бит
Тип развёртки : Прогрессивная
Метод сжатия : С потерями
Бит/(Пиксели*Кадры) : 0.250
Размер потока : 1,16 Гбайт (90%)
Библиотека кодирования : XviD 1.2.1 (UTC 2008-12-04)
Аудио
Идентификатор : 1
Формат : AC-3
Формат/Информация : Audio Coding 3
Расширение режима : CM (complete main)
Параметр Endianness формата : Big
Идентификатор кодека : 2000
Продолжительность : 1 ч. 32 м.
Вид битрейта : Постоянный
Битрейт : 192 Кбит/сек
Каналы : 2 канала
Расположение каналов : Front: L R
Частота : 48,0 КГц
Метод сжатия : С потерями
Размер потока : 126 Мбайт (10%)
Выравнивание : Разделение по промежуткам
Продолжительность промежутка : 40 мс. (1,00 видеокадр)
Время предзагрузки промежутка : 500 мс.
Релиз от:
[Профиль] [ЛС]
Показать сообщения:    

Текущее время: Сегодня 05:00

Часовой пояс: GMT



Вы не можете начинать темы
Вы не можете отвечать на сообщения
Вы не можете редактировать свои сообщения
Вы не можете удалять свои сообщения
Вы не можете голосовать в опросах
Вы не можете прикреплять файлы к сообщениям
Вы не можете скачивать файлы