Самое главное / The Be All and End All (Брюс Уэбб / Bruce Webb) [2009, Великобритания, комедия, драма, DVDRip] (Тарас Котов) + Sub Rus + Original Eng

 
Автор Сообщение

reversefile ®

Пол:

Стаж: 4 года 5 месяцев

Сообщений: 842

Откуда: ReverseFile.org



Награды: Нет

Торрент-статистика

Создавать темы 11-Авг-2014 10:49

[Цитировать]

Самое главное / The Be All and End All
Страна: Великобритания
Жанр: комедия, драма
Год выпуска: 2009
Продолжительность: 01:34:56
Перевод: Субтитры Тарас Котов
Cубтитры: русские
Оригинальная аудиодорожка: английский
Режиссер: Брюс Уэбб / Bruce Webb
В ролях: Юджин Бёрн, Джош Болт, Коннор Макинтайр, Лиза Тарбук, Нив Макинтош, Кэтрин Райс, Брайони Сет, Лиэнн Бест и др.
Описание: Что для тебя важней всего, когда тебе 15 лет? Ответ у большинства, видимо, будет одним и тем же. Два закадычных друга Робби (Роберт) и Зигги (Зигмунд) возвращаются после летнего отдыха с родителями Роберта домой в родной Ливерпуль. Роберту становится плохо. Болезнь, как выясняется, смертельно опасна. Робби хочет успеть осуществить своё заветное желание и просит друга помочь ему в этом.
IMDB: 6,9/10 (from 299 users)
http://www.imdb.com/title/tt1220873/
Сэмпл: http://multi-up.com/952799
Качество видео: DVDRip
Формат видео: AVI
Видео: XviD; 640x336 (1.90:1); 25 fps; 895 kbps; 0.17 bit/pixel
Аудио: MPEG Layer 3; 48 kHz; 128.00 kbps; 2 ch
Формат субтитров: softsub (SRT)

MediaInfo

General
Format : AVI
Format/Info : Audio Video Interleave
File size : 702 MiB
Duration : 1h 34mn
Overall bit rate : 1 034 Kbps
Writing application : VirtualDubMod 1.5.10.2 (build 2540/release)
Writing library : VirtualDub build 32842/release
Video
ID : 0
Format : MPEG-4 Visual
Format profile : Advanced Simple@L5
Format settings, BVOP : Yes
Format settings, QPel : No
Format settings, GMC : No warppoints
Format settings, Matrix : Default (H.263)
Codec ID : XVID
Codec ID/Hint : XviD
Duration : 1h 34mn
Bit rate : 896 Kbps
Width : 640 pixels
Height : 336 pixels
Display aspect ratio : 1.905
Frame rate : 25.000 fps
Color space : YUV
Chroma subsampling : 4:2:0
Bit depth : 8 bits
Scan type : Progressive
Bits/(Pixel*Frame) : 0.167
Stream size : 608 MiB (87%)
Writing library : XviD 1.2.1 (UTC 2008-12-04)
Audio
ID : 1
Format : MPEG Audio
Format version : Version 1
Format profile : Layer 3
Mode : Joint stereo
Mode extension : MS Stereo
Codec ID : 55
Codec ID/Hint : MP3
Duration : 1h 34mn
Bit rate mode : Constant
Bit rate : 128 Kbps
Channel(s) : 2 channels
Sampling rate : 48.0 KHz
Stream size : 86.9 MiB (12%)
Alignment : Split accross interleaves
Interleave, duration : 40 ms (1.00 video frame)
Interleave, preload duration : 500 ms

Скриншот c названием фильма

Скриншоты

Пример Субтитров:

скрытый текст

735
01:03:28,740 --> 01:03:30,639
Сговоримся, красавчик?
736
01:03:34,020 --> 01:03:37,508
Детям за полцены по средам, красавчик.
737
01:03:37,800 --> 01:03:39,679
Милые кроссовки.
738
01:03:40,080 --> 01:03:41,680
Куда же ты?
739
01:03:42,160 --> 01:03:43,412
Вернись!
740
01:03:49,600 --> 01:03:52,037
Иди-ка сюда. Что-то ищешь?
741
01:03:53,705 --> 01:04:00,500
- Я ищу, знаете ли, профессионалку.
- О, конечно. Типа кого-то с изюминкой?
742
01:04:00,560 --> 01:04:03,675
Подходящую, молодую.
Для друга. Он в больнице.
743
01:04:03,760 --> 01:04:09,293
В больнице? Думаю, что знаю
девчонку. У тебя есть деньги?
744
01:04:10,480 --> 01:04:12,393
Сколько стоит?
745
01:04:12,480 --> 01:04:14,152
По-разному.
746
01:04:15,440 --> 01:04:20,291
Обычно, э-э,
между, э-э, 50 и 100.
747
01:04:20,380 --> 01:04:24,935
- У меня 60. Что за них получу?
- 60? Скажу, что именно.
748
01:04:24,970 --> 01:04:29,743
Твой друг в больнице? Пойду на сделку.
60 фунтов. И пусть трахает её, как хочет.
749
01:04:29,800 --> 01:04:31,610
Как насчёт этого?
750
01:04:32,660 --> 01:04:34,032
Деньги.
751
01:04:36,240 --> 01:04:38,298
Могу я заплатить после?
752
01:04:38,400 --> 01:04:41,756
Нет. Кто тебя знает?
Я найду её и приведу сюда.
753
01:04:41,800 --> 01:04:44,830
- Я не хочу прямо сейчас. Мне нужно время,
чтоб всё устроить. - Слушай, мужичок,
754
01:04:44,940 --> 01:04:48,769
если б я хотел, то сразу
отнял бы деньги. Но не могу.
755
01:04:48,810 --> 01:04:53,401
Я человек честный и скажу вот что.
Дам тебе свой номер.
756
01:04:53,440 --> 01:04:57,395
- Ручка есть? Ручка есть?
- Есть. - Отлично.
[Профиль] [ЛС]

Создавать темы 06-Авг-2015 23:19 (спустя 11 месяцев 26 дней)

Топик был перенесен из форума Фильмы до 2014 года в форум Фильмы до 2012 года
sergej644
 

Создавать темы 12-Июн-2016 08:13 (спустя 1 год 10 месяцев)

Топик был перенесен из форума Фильмы 2011 года в форум Фильмы 2009 года
Russian Mafia
 
Показать сообщения:    

Текущее время: Сегодня 16:24

Часовой пояс: GMT



Вы не можете начинать темы
Вы не можете отвечать на сообщения
Вы не можете редактировать свои сообщения
Вы не можете удалять свои сообщения
Вы не можете голосовать в опросах
Вы не можете прикреплять файлы к сообщениям
Вы не можете скачивать файлы