Самоволка / Lionheart (1990) BDRip-AVC от 0ptimus | P, A

 
Автор Сообщение

sergej644 ®

Пол:

Стаж: 4 года 11 месяцев

Сообщений: 6045

Откуда: Soviet Union



Награды: Нет

Торрент-статистика

Создавать темы 06-Ноя-2014 09:11

[Цитировать]

Самоволка / Львиное сердце
| A.W.O.L. / Lionheart |

Информация о фильме
Название: Самоволка / Львиное сердце
Оригинальное название: Lionheart
Год выхода: 1990
Жанр: боевик, драма
Режиссер: Шелдон Леттич
В ролях: Жан-Клод Ван Дамм, Харрисон Пейдж, Дебора Реннард, Лиза Пеликан, Эшли Джонсон, Брайан Томпсон, Войо Горич, Мишель Кисси, Джордж МакДэниэл, Эрик Карсон, Эш Эдамс, Уильям Т. Амос, Роз Босли, Дэннис Ракер, Билли Блэнкс
О фильме:
Узнав, что его брат в Лос-Анджелесе серьезно ранен, Лайон Голтье дезертирует из французского иностранного легиона, базирующегося в отдаленном районе Северной Африки. Скрываясь от двух боевиков-легионеров, которым дан приказ вернуть его любой ценой, Лайон против своего желания становится участником незаконных боев современных гладиаторов, дерущихся голыми руками для развлечения богатых. Ему нужны деньги, чтобы помочь семье своего брата.

Страна: США
Студия: Guild, Imperial Entertainment Corporation, Sunil, Wrong Bet Productions
Продолжительность: 01:45:08
Перевод: Профессиональный многоголосый, авторский
Файл
Кодек: h.264
Качество: BDRip-AVC
Видео: 2665 Кбит/с, 1024x554, 23.976 кадр/с
Звук:
• №1: Русский (AC3, 2 ch, 192 Кбит/с) Професиональный многоголосый [Twister]
• №2: Русский (AC3, 2 ch, 192 Кбит/с) Авторский одноголосый [Андрей Гаврилов, новый перевод]
• №3: Русский (AC3, 2 ch, 192 Кбит/с) Авторский одноголосый [Михаил Яроцкий (kyberpunk)]
• №4: Английский (AC3, 2 ch, 192 Кбит/с)
Отдельно:
• №5: Русский (AC3, 2 ch, 192 Кбит/с) Професиональный многоголосый [РТР]
• №6: Русский (AC3, 2 ch, 192 Кбит/с) Авторский одноголосый [Андрей Гаврилов, старый перевод]
• №7: Русский (AC3, 2 ch, 192 Кбит/с) Авторский одноголосый [Григорий Либергал]
• №8: Русский (AC3, 2 ch, 192 Кбит/с) Авторский одноголосый [Леонид Володарский]
• №9: Русский (AC3, 2 ch, 192 Кбит/с) Авторский одноголосый [Юрий Толбин]
Субтитры: Русские, английские

MediaInfo

-------------------------------------------------------------------------------------------------
x264 [info]: frame I:1081 Avg QP:17.73 size: 99235
x264 [info]: frame P:34633 Avg QP:20.82 size: 31939
x264 [info]: frame B:115543 Avg QP:22.37 size: 7676
x264 [info]: consecutive B-frames: 2.0% 3.5% 11.6% 18.2% 23.7% 37.1% 2.7% 0.8% 0.2% 0.1% 0.1% 0.0% 0.0% 0.0% 0.1%
-------------------------------------------------------------------------------------------------
Полное имя : Lionheart.1990.x264.BDRip-AVC.0ptimus.mkv
Формат : Matroska
Версия формата : Version 2
Размер файла : 2,52 Гбайт
Продолжительность : 1 ч. 45 м.
Общий поток : 3434 Кбит/сек
Название фильма : Самоволка | Lionheart [1990] -= BDRp (AVC) by 0ptimus =-
Дата кодирования : UTC 2014-11-02 10:02:59
Программа кодирования : mkvmerge v6.6.0 ('The Edge Of The In Between') built on Dec 1 2013 17:55:00
Библиотека кодирования : libebml v1.3.0 + libmatroska v1.4.1
Видео
Идентификатор : 1
Формат : AVC
Формат/Информация : Advanced Video Codec
Профиль формата : High@L4.1
Параметр CABAC формата : Да
Параметр ReFrames формата : 9 кадров
Идентификатор кодека : V_MPEG4/ISO/AVC
Продолжительность : 1 ч. 45 м.
Битрейт : 2665 Кбит/сек
Ширина : 1024 пикселя
Высота : 554 пикселя
Соотношение сторон : 1,85:1
Режим частоты кадров : Постоянный
Частота кадров : 23,976 кадра/сек
Цветовое пространство : YUV
Субдискретизация насыщенности : 4:2:0
Битовая глубина : 8 бит
Тип развёртки : Прогрессивная
Бит/(Пиксели*Кадры) : 0.196
Размер потока : 1,91 Гбайт (76%)
Заголовок : Rip by 0ptimus
Библиотека кодирования : x264 core 133 r2334 a3ac64b
Настройки программы : cabac=1 / ref=9 / deblock=1:-3:-3 / analyse=0x3:0x113 / me=umh / subme=11 / psy=1 / psy_rd=1.00:0.30 / mixed_ref=1 / me_range=32 / chroma_me=1 / trellis=2 / 8x8dct=1 / cqm=0 / deadzone=21,11 / fast_pskip=0 / chroma_qp_offset=-4 / threads=4 / lookahead_threads=1 / sliced_threads=0 / nr=0 / decimate=0 / interlaced=0 / bluray_compat=0 / constrained_intra=0 / bframes=14 / b_pyramid=2 / b_adapt=2 / b_bias=0 / direct=3 / weightb=1 / open_gop=0 / weightp=2 / keyint=240 / keyint_min=23 / scenecut=40 / intra_refresh=0 / rc_lookahead=40 / rc=2pass / mbtree=0 / bitrate=2665 / ratetol=1.0 / qcomp=0.60 / qpmin=0 / qpmax=69 / qpstep=4 / cplxblur=20.0 / qblur=0.5 / vbv_maxrate=50000 / vbv_bufsize=50000 / nal_hrd=none / ip_ratio=1.40 / pb_ratio=1.30 / aq=1:1.00
Язык : English
Default : Да
Forced : Да
Аудио #1
Идентификатор : 2
Формат : AC-3
Формат/Информация : Audio Coding 3
Расширение режима : CM (complete main)
Параметр Endianness формата : Big
Идентификатор кодека : A_AC3
Продолжительность : 1 ч. 45 м.
Вид битрейта : Постоянный
Битрейт : 192 Кбит/сек
Каналы : 2 канала
Расположение каналов : Front: L R
Частота : 48,0 КГц
Битовая глубина : 16 бит
Метод сжатия : С потерями
Размер потока : 144 Мбайт (6%)
Заголовок : Многоголосый [Twister] AC3 2.0 @ 192 kbps
Язык : Russian
Default : Да
Forced : Да
Аудио #2
Идентификатор : 3
Формат : AC-3
Формат/Информация : Audio Coding 3
Расширение режима : CM (complete main)
Параметр Endianness формата : Big
Идентификатор кодека : A_AC3
Продолжительность : 1 ч. 45 м.
Вид битрейта : Постоянный
Битрейт : 192 Кбит/сек
Каналы : 2 канала
Расположение каналов : Front: L R
Частота : 48,0 КГц
Битовая глубина : 16 бит
Метод сжатия : С потерями
Размер потока : 144 Мбайт (6%)
Заголовок : Авторский [Андрей Гаврилов, новый] AC3 2.0 @ 192 kbps
Язык : Russian
Default : Нет
Forced : Нет
Аудио #3
Идентификатор : 4
Формат : AC-3
Формат/Информация : Audio Coding 3
Расширение режима : CM (complete main)
Параметр Endianness формата : Big
Идентификатор кодека : A_AC3
Продолжительность : 1 ч. 45 м.
Вид битрейта : Постоянный
Битрейт : 192 Кбит/сек
Каналы : 2 канала
Расположение каналов : Front: L R
Частота : 48,0 КГц
Битовая глубина : 16 бит
Метод сжатия : С потерями
Размер потока : 144 Мбайт (6%)
Заголовок : Авторский [Михаил Яроцкий (kyberpunk)] AC3 2.0 @ 192 kbps
Язык : Russian
Default : Нет
Forced : Нет
Аудио #4
Идентификатор : 5
Формат : AC-3
Формат/Информация : Audio Coding 3
Расширение режима : CM (complete main)
Параметр Endianness формата : Big
Идентификатор кодека : A_AC3
Продолжительность : 1 ч. 45 м.
Вид битрейта : Постоянный
Битрейт : 192 Кбит/сек
Каналы : 2 канала
Расположение каналов : Front: L R
Частота : 48,0 КГц
Битовая глубина : 16 бит
Метод сжатия : С потерями
Размер потока : 144 Мбайт (6%)
Заголовок : AC3 2.0 @ 192 kbps
Язык : English
Default : Нет
Forced : Нет
Текст #1
Идентификатор : 6
Формат : UTF-8
Идентификатор кодека : S_TEXT/UTF8
Идентификатор кодека/Информация : UTF-8 Plain Text
Язык : Russian
Default : Нет
Forced : Нет
Текст #2
Идентификатор : 7
Формат : UTF-8
Идентификатор кодека : S_TEXT/UTF8
Идентификатор кодека/Информация : UTF-8 Plain Text
Язык : English
Default : Нет
Forced : Нет
Меню
00:00:00.000 : en:Sugar and Gasoline (Main Titles)
00:03:42.000 : en:Djibouti, North Africa
00:07:21.000 : en:The Box
00:10:26.000 : en:The Docks
00:13:18.000 : en:America
00:17:07.000 : en:Lyon the Lion
00:22:48.000 : en:The Lady
00:35:04.000 : en:L.A.
00:39:08.000 : en:His Brother's Family
00:45:15.000 : en:A Room for the Night
00:52:43.000 : en:I'll Fight
00:59:02.000 : en:A Secret Insurance Policy
01:08:05.000 : en:You Know Why We're Here!
01:12:55.000 : en:The Lady and The Legion
01:34:25.000 : en:It's Time to Go
01:41:12.000 : en:End Titles
Релиз от:
[Профиль] [ЛС]
Показать сообщения:    

Текущее время: Сегодня 18:29

Часовой пояс: GMT



Вы не можете начинать темы
Вы не можете отвечать на сообщения
Вы не можете редактировать свои сообщения
Вы не можете удалять свои сообщения
Вы не можете голосовать в опросах
Вы не можете прикреплять файлы к сообщениям
Вы не можете скачивать файлы