Самая красивая жена / La moglie più bella (1970) BDRip 720p | P, A

 
Автор Сообщение

Swager ®

Пол:

Стаж: 2 года 2 месяца

Сообщений: 1379



Награды: 4 (Подробнее)

Mega Seeder 1 (Количество: 1) Top Releaser 2 (Количество: 1) Mega Seeder 2 (Количество: 1)
Торрент-статистика

Создавать темы 11-Окт-2017 10:55

[Цитировать]

Информация о фильме
Название: Самая красивая жена
Оригинальное название: La moglie più bella
Год выхода: 1970
Жанр: драма, криминал
Режиссер: Дамиано Дамиани
В ролях: Алессио Орано, Орнелла Мути, Тано Чимароза, Джо Сентьери, Энцо Андронико, Америго Тот, Пьерлуиджи Апра, Сальваторе Баккаро, Сандро Арлотта, Диего Морреале, Мариэлла Пальмик, Джузеппе Лауричелла, Джоселин Мюнхенбах, Фортунато Арена, Прасседе Ногара, Сальваторе Москардини, Гаэтано Ди Лео, Франческо Транкина, Франко Марлетта
Описание: 22-летний Вито Ювара, чтобы сделать карьеру в мафии, решил жениться. Его выбор пал на юную Франческу. Когда Вито сообщает ей о своем решении, гордая сицилианка, несмотря на то, что ей нравится Вито, отказывает ему, потому что не желает быть только красивой игрушкой в его жизни.
Вито жестоко мстит девушке и ее семье, но и Франческа не остается в долгу: она подает в полицию заявление об изнасиловании. Но даже ее родители не верят, что член мафии может угодить в тюрьму…

Страна: Италия
Продолжительность: 01:48:41
Перевод 1: Профессиональный (многоголосый закадровый) Пифагор
Перевод 2: Авторский (одноголосый закадровый) Антон Алексеев
Субтитры: русские, английские
Оригинальная аудиодорожка: итальянский
Файл
Качество: BDRip 720p
Видео: 9618 кбит/сек, 1280x546 (2,35:1), 23,976 кадра/сек, AVC
Аудио 1: Русский, 192 Кбит/сек, 48,0 КГц, 2 канала, AC-3 - многоголоска
Аудио 2: Русский, 192 Кбит/сек, 48,0 КГц, 2 канала, AC-3 - одноголоска
Аудио 3: Итальянский, 428 Кбит/сек, 48,0 КГц, 2 канала, FLAC

Скриншоты

MediaInfo

Общее
Уникальный идентификатор : 203316852414138767999823510343697793969 (0x98F566C3DFA8D468840B7970939383B1)
Полное имя : O:MONARХудожественные фильмыЗарубежное киноСамая красивая жена (1970).mkv
Формат : Matroska
Версия формата : Version 4 / Version 2
Размер файла : 7,92 Гбайт
Продолжительность : 1 ч. 48 м.
Режим общего битрейта : Переменный
Общий поток : 10,4 Мбит/сек
Название фильма : La moglie più bella (1970)
Дата кодирования : UTC 2017-03-11 06:30:01
Программа кодирования : mkvmerge v9.9.0 ('Pick Up') 64bit
Библиотека кодирования : libebml v1.3.4 + libmatroska v1.4.5
Видео
Идентификатор : 1
Формат : AVC
Формат/Информация : Advanced Video Codec
Профиль формата : High@L4.1
Параметр CABAC формата : Да
Параметр ReFrames формата : 11 кадров
Идентификатор кодека : V_MPEG4/ISO/AVC
Продолжительность : 1 ч. 48 м.
Битрейт : 9618 Кбит/сек
Ширина : 1280 пикселей
Высота : 546 пикселей
Соотношение сторон : 2,35:1
Режим частоты кадров : Постоянный
Частота кадров : 23,976 (24000/1001) кадра/сек
Цветовое пространство : YUV
Субдискретизация насыщенности : 4:2:0
Битовая глубина : 8 бит
Тип развёртки : Прогрессивная
Бит/(Пиксели*Кадры) : 0.574
Размер потока : 7,30 Гбайт (92%)
Библиотека кодирования : x264 core 148 r2744+55 950084e t_mod_Custom [8-bit@all X86_64]
Настройки программы : cabac=1 / ref=11 / deblock=1:-3:-3 / analyse=0x3:0x133 / me=umh / subme=10 / psy=1 / fade_compensate=0.00 / psy_rd=1.05:0.00 / mixed_ref=1 / me_range=32 / chroma_me=1 / trellis=2 / 8x8dct=1 / cqm=0 / deadzone=21,11 / fast_pskip=0 / chroma_qp_offset=-2 / threads=12 / lookahead_threads=2 / sliced_threads=0 / nr=0 / decimate=0 / interlaced=0 / bluray_compat=0 / constrained_intra=0 / fgo=0 / bframes=8 / b_pyramid=2 / b_adapt=2 / b_bias=0 / direct=3 / weightb=1 / open_gop=0 / weightp=2 / keyint=250 / keyint_min=24 / scenecut=40 / intra_refresh=0 / rc_lookahead=60 / rc=crf / mbtree=0 / crf=17.5000 / qcomp=0.60 / qpmin=0:0:0 / qpmax=69:69:69 / qpstep=4 / vbv_maxrate=62500 / vbv_bufsize=78125 / crf_max=0.0 / nal_hrd=none / filler=0 / ip_ratio=1.20 / pb_ratio=1.10 / aq=3:0.80 / aq-sensitivity=10.00 / aq-factor=1.00:1.00:1.00 / aq2=0 / aq3=0
Язык : Italian
Default : Да
Forced : Нет
Аудио #1
Идентификатор : 2
Формат : AC-3
Формат/Информация : Audio Coding 3
Параметр Endianness формата : Big
Идентификатор кодека : A_AC3
Продолжительность : 1 ч. 48 м.
Вид битрейта : Постоянный
Битрейт : 192 Кбит/сек
Каналы : 2 канала
Расположение каналов : Front: L R
Частота : 48,0 КГц
Частота кадров : 31,250 кадров/сек (1536 spf)
Битовая глубина : 16 бит
Метод сжатия : С потерями
Размер потока : 149 Мбайт (2%)
Заголовок : MVO
Язык : Russian
Default : Да
Forced : Нет
Аудио #2
Идентификатор : 3
Формат : AC-3
Формат/Информация : Audio Coding 3
Параметр Endianness формата : Big
Идентификатор кодека : A_AC3
Продолжительность : 1 ч. 48 м.
Вид битрейта : Постоянный
Битрейт : 192 Кбит/сек
Каналы : 2 канала
Расположение каналов : Front: L R
Частота : 48,0 КГц
Частота кадров : 31,250 кадров/сек (1536 spf)
Битовая глубина : 16 бит
Метод сжатия : С потерями
Размер потока : 149 Мбайт (2%)
Заголовок : AVO
Язык : Russian
Default : Нет
Forced : Нет
Аудио #3
Идентификатор : 4
Формат : FLAC
Формат/Информация : Free Lossless Audio Codec
Идентификатор кодека : A_FLAC
Продолжительность : 1 ч. 48 м.
Вид битрейта : Переменный
Битрейт : 428 Кбит/сек
Каналы : 2 канала
Расположение каналов : Front: L R
Частота : 48,0 КГц
Частота кадров : 11,719 кадров/сек (4096 spf)
Битовая глубина : 16 бит
Размер потока : 333 Мбайт (4%)
Заголовок : original
Библиотека кодирования : libFLAC 1.2.1 (UTC 2007-09-17)
Язык : Italian
Default : Нет
Forced : Нет
Текст #1
Идентификатор : 5
Формат : UTF-8
Идентификатор кодека : S_TEXT/UTF8
Идентификатор кодека/Информация : UTF-8 Plain Text
Продолжительность : 1 ч. 48 м.
Битрейт : 91 бит/сек
ElementCount : 1065
Размер потока : 72,7 Кбайт (0%)
Заголовок : srt
Язык : Russian
Default : Нет
Forced : Нет
Текст #2
Идентификатор : 6
Формат : UTF-8
Идентификатор кодека : S_TEXT/UTF8
Идентификатор кодека/Информация : UTF-8 Plain Text
Продолжительность : 1 ч. 48 м.
Битрейт : 52 бит/сек
ElementCount : 947
Размер потока : 42,0 Кбайт (0%)
Заголовок : srt
Язык : English
Default : Нет
Forced : Нет
Меню
00:00:00.000 : en:CHAPTER 01
00:02:20.098 : en:CHAPTER 02
00:09:47.754 : en:CHAPTER 03
00:13:50.872 : en:CHAPTER 04
00:18:30.067 : en:CHAPTER 05
00:24:06.570 : en:CHAPTER 06
00:27:56.675 : en:CHAPTER 07
00:33:04.941 : en:CHAPTER 08
00:37:58.735 : en:CHAPTER 09
00:42:54.906 : en:CHAPTER 10
00:46:04.679 : en:CHAPTER 11
00:51:12.569 : en:CHAPTER 12
00:55:22.611 : en:CHAPTER 13
01:00:43.807 : en:CHAPTER 14
01:05:54.450 : en:CHAPTER 15
01:09:33.711 : en:CHAPTER 16
01:15:17.221 : en:CHAPTER 17
01:19:37.523 : en:CHAPTER 18
01:23:21.830 : en:CHAPTER 19
01:28:48.490 : en:CHAPTER 20
01:33:24.224 : en:CHAPTER 21
01:38:10.718 : en:CHAPTER 22
01:43:52.977 : en:CHAPTER 23
01:47:12.051 : en:CHAPTER 24
[Профиль] [ЛС]
Показать сообщения:    

Текущее время: Сегодня 05:04

Часовой пояс: GMT



Вы не можете начинать темы
Вы не можете отвечать на сообщения
Вы не можете редактировать свои сообщения
Вы не можете удалять свои сообщения
Вы не можете голосовать в опросах
Вы не можете прикреплять файлы к сообщениям
Вы не можете скачивать файлы