Сальвадор / Salvador (1986) BDRip 1080p от MediaClub | P, A, L1

 
Автор Сообщение

Russian Mafia ®

Пол:

Стаж: 1 год 8 месяцев

Сообщений: 4256



Награды: 10 (Подробнее)

Mega Seeder 3 (Количество: 1) Top Releaser 4 (Количество: 1) Mega Seeder 1 (Количество: 1)
Торрент-статистика

Создавать темы 27-Авг-2016 11:30

[Цитировать]

Информация о фильме
Название: Сальвадор
Оригинальное название: Salvador
Год выхода: 1986
Жанр: Триллер, драма, военный
Режиссер: Оливер Стоун
В ролях: Джеймс Вудс, Джеймс Белуши, Майкл Мерфи, Джон Сэвэдж, Эльпидия Каррильо, Тони Плана, Колби Честер, Синтия Гибб, Уилл МакМиллан, Валери Уайлдмен, Хосе Карлос Руис, Хорхе Луке, Хуан Фернандес, Сальвадор Санчес, Росарио Суньига
О фильме:
Тропический рай, в котором доступны все удовольствия мира. Неистовство красок, фантастические женщины, море выпивки, любые наркотики — и все это совсем или практически бесплатно! Репортер Ричард Бойл знает Сальвадор именно таким, он провел здесь много незабываемых месяцев.И когда, вслед за уходом жены, он вылетает с работы и в конце концов попадает за решетку, он уговаривает товарища по несчастью бежать именно сюда. В отличие от прошедшего все круги ада Ричарда, Доктор Рок — простой беззаботный искатель приключений. И умей он заглядывать в будущее или хотя бы в газеты — все могло сложиться иначе! Далекий земной рай, который так хорошо знал Ричард, успел стать ареной чудовищной, кровавой гражданской войны.И как это было с ним во Вьетнаме, в Камбодже — в любом месте, где жизнь целой страны зависит от решений узкого круга недостижимо далеких от нее лиц, для Ричарда эта война становится больше, чем работой — жизнью.
Страна: Великобритания, США
Студия: Hemdale Films
Продолжительность: 02:03:11
Перевод: Профессиональный многоголосый закадровый, авторский, любительский одноголосый закадровый
Файл
Кодек: h.264
Качество: BDRip 1080p
Видео: MPEG-4 AVC, 16800 Кбит/с, 1920x1040, 23.976 кадр/с
Звук:
Русский (AC3, 6 ch, 448 Кбит/с) / Профессиональный многоголосый
Русский (DTS, 6 ch, 1509 Кбит/с) / Авторский (M Яроцкий)
Русский (AC3, 6 ch, 448 Кбит/с) / Любительский одноголосый
Английский (DTS, 6 ch, 1509 Кбит/с)
Субтитры: Русские, английские
Семпл

О релизе

Автор релиза - Silverok, За BDRemux спасибо pirs18
Дорожка №2 получена путем наложения чистого голоса на центральный канал оригинала
Перевод Михаила Яроцкого доступен благодаря mihey10 с ресурса "Переулок Переводмана"
Субтитры: S_TEXT/UTF8 (SRT) - Русские, английские

MI

General
Unique ID : 187371815352122048720325995420410865294 (0x8CF67FBDF1FD1C73A84C2369913E668E)
Complete name : D:uTorrentSalvador.1986.BDRip.1080p.MediaClub.mkv
Format : Matroska
Format version : Version 4 / Version 2
File size : 17.8 GiB
Duration : 2 h 3 min
Overall bit rate : 20.6 Mb/s
Encoded date : UTC 2016-08-27 08:22:11
Writing application : mkvmerge v9.3.1 ('Mask Machine') 64bit
Writing library : libebml v1.3.4 + libmatroska v1.4.5
Video
ID : 1
Format : AVC
Format/Info : Advanced Video Codec
Format profile : High@L4.1
Format settings, CABAC : Yes
Format settings, ReFrames : 4 frames
Codec ID : V_MPEG4/ISO/AVC
Duration : 2 h 2 min
Bit rate : 16.8 Mb/s
Width : 1 920 pixels
Height : 1 040 pixels
Display aspect ratio : 1.85:1
Frame rate mode : Constant
Frame rate : 23.976 (24000/1001) FPS
Color space : YUV
Chroma subsampling : 4:2:0
Bit depth : 8 bits
Scan type : Progressive
Bits/(Pixel*Frame) : 0.351
Stream size : 14.4 GiB (81%)
Title : BDRip by Silverok
Writing library : x264 core 148 r2638 7599210
Encoding settings : cabac=1 / ref=4 / deblock=1:-3:-3 / analyse=0x3:0x113 / me=umh / subme=11 / psy=1 / psy_rd=1.00:0.18 / mixed_ref=1 / me_range=48 / chroma_me=1 / trellis=2 / 8x8dct=1 / cqm=0 / deadzone=21,11 / fast_pskip=0 / chroma_qp_offset=-3 / threads=12 / lookahead_threads=3 / sliced_threads=0 / nr=0 / decimate=0 / interlaced=0 / bluray_compat=0 / constrained_intra=0 / bframes=10 / b_pyramid=2 / b_adapt=2 / b_bias=0 / direct=3 / weightb=1 / open_gop=0 / weightp=2 / keyint=240 / keyint_min=24 / scenecut=40 / intra_refresh=0 / rc=2pass / mbtree=0 / bitrate=16794 / ratetol=1.0 / qcomp=0.60 / qpmin=0 / qpmax=69 / qpstep=4 / cplxblur=20.0 / qblur=0.5 / ip_ratio=1.40 / pb_ratio=1.30 / aq=1:1.00
Default : Yes
Forced : No
Audio #1
ID : 2
Format : AC-3
Format/Info : Audio Coding 3
Mode extension : CM (complete main)
Format settings, Endianness : Big
Codec ID : A_AC3
Duration : 2 h 3 min
Bit rate mode : Constant
Bit rate : 448 kb/s
Channel(s) : 6 channels
Channel positions : Front: L C R, Side: L R, LFE
Sampling rate : 48.0 kHz
Frame rate : 31.250 FPS (1536 spf)
Compression mode : Lossy
Stream size : 395 MiB (2%)
Title : Профессиональный многоголосый закадровый
Language : Russian
Default : Yes
Forced : No
Audio #2
ID : 3
Format : DTS
Format/Info : Digital Theater Systems
Mode : 16
Format settings, Endianness : Big
Codec ID : A_DTS
Duration : 2 h 3 min
Bit rate mode : Constant
Bit rate : 1 509 kb/s
Channel(s) : 6 channels
Channel positions : Front: L C R, Side: L R, LFE
Sampling rate : 48.0 kHz
Frame rate : 93.750 FPS (512 spf)
Bit depth : 24 bits
Compression mode : Lossy
Stream size : 1.30 GiB (7%)
Title : Авторский (M Яроцкий)
Language : Russian
Default : No
Forced : No
Audio #3
ID : 4
Format : AC-3
Format/Info : Audio Coding 3
Mode extension : CM (complete main)
Format settings, Endianness : Big
Codec ID : A_AC3
Duration : 2 h 3 min
Bit rate mode : Constant
Bit rate : 448 kb/s
Channel(s) : 6 channels
Channel positions : Front: L C R, Side: L R, LFE
Sampling rate : 48.0 kHz
Frame rate : 31.250 FPS (1536 spf)
Compression mode : Lossy
Stream size : 395 MiB (2%)
Title : Одноголосый закадровый
Language : Russian
Default : No
Forced : No
Audio #4
ID : 5
Format : DTS
Format/Info : Digital Theater Systems
Mode : 16
Format settings, Endianness : Big
Codec ID : A_DTS
Duration : 2 h 3 min
Bit rate mode : Constant
Bit rate : 1 509 kb/s
Channel(s) : 6 channels
Channel positions : Front: L C R, Side: L R, LFE
Sampling rate : 48.0 kHz
Frame rate : 93.750 FPS (512 spf)
Bit depth : 24 bits
Compression mode : Lossy
Stream size : 1.30 GiB (7%)
Language : English
Default : No
Forced : No
Text #1
ID : 6
Format : UTF-8
Codec ID : S_TEXT/UTF8
Codec ID/Info : UTF-8 Plain Text
Duration : 1 h 57 min
Bit rate : 102 b/s
Count of elements : 1479
Stream size : 87.7 KiB (0%)
Title : Full
Language : Russian
Default : Yes
Forced : No
Text #2
ID : 7
Format : UTF-8
Codec ID : S_TEXT/UTF8
Codec ID/Info : UTF-8 Plain Text
Duration : 1 h 56 min
Bit rate : 75 b/s
Count of elements : 1819
Stream size : 64.4 KiB (0%)
Title : Full
Language : English
Default : No
Forced : No

Скриншоты

[Профиль] [ЛС]
Кто просматривает тему:

Форум Тема Автор Размер
Фильмы 2011 года Бесценный / Роковая красотка / Hors de prix (Пьер Сальвадори / Pierre Salvadori) [2006, Франция, мелодрама, комедия, DVDRip] AVO (Евгений Гранкин) + Original Fre TorrentFilm 1.5 GB
Фильмы 2011 года Мирный воин / Peaceful Warrior (Виктор Сальва / Victor Salva) [2006, Германия, США, драма, мелодрама, спорт, BDRip-AVC] MVO (ТВ3) + Original Eng + Sub Rus, Eng TorrentFilm 2.18 GB
Фильмы 2011 года Мирный воин / Peaceful Warrior (Виктор Сальва / Victor Salva) [2006, Германия, США, Драма, мелодрама, спорт, BDRip] MVO (ТВ3) TorrentFilm 1.46 GB
Фильмы 2011 года Мирный воин / Peaceful Warrior (Виктор Сальва / Victor Salva) [2006, Германия, США, драма, мелодрама, спорт, биография, BDRip-AVC] MVO (ТВ3) + Original Eng TorrentFilm 2.9 GB
Фильмы 2011 года Мирный воин / Peaceful Warrior (Виктор Сальва / Victor Salva) [2006, США, Германия, драма, мелодрама, спорт, биография, WEB-DLRip] 2xMVO + Original TorrentFilm 1.95 GB
Фильмы 2011 года Роковая красотка / Priceless / Hors de prix (Пьер Сальвадори / Pierre Salvadori) [2006, Франция, комедия, мелодрама, BDRip] Dub painkiller 1.46 GB
Фантастика и фэнтези Сальваторе Роберт - Тёмный эльф 8. Беззвёздная ночь (2015) МР3 Swager 725 MB
Фильмы (HD Rips | 720p, 1080p) Сальво / Salvo (Фабио Грассадония, Антонио Пьяцца) [2013 г., драма, мелодрама, криминал, WEB-DLRip] Magnat 3.56 GB
Показать сообщения:    

Текущее время: Сегодня 18:36

Часовой пояс: GMT



Вы не можете начинать темы
Вы не можете отвечать на сообщения
Вы не можете редактировать свои сообщения
Вы не можете удалять свои сообщения
Вы не можете голосовать в опросах
Вы не можете прикреплять файлы к сообщениям
Вы не можете скачивать файлы