Салем / Salem (Сезон 1-2, Серии 1-26 из 26) (Ричард Шепард) [2014-2015, Ужасы, Фантастика, триллер, драма, WEBDLRip-AVC 1080р] [DD5.1] [MVO] [AlexFilm+ Subs ENG]

 
Автор Сообщение

Враг Нароода ®

Стаж: 1 год 8 месяцев

Сообщений: 112



Награды: 2 (Подробнее)

За внесенный вклад в развитие сайта (Количество: 1) Mega Seeder 1 (Количество: 1)
Торрент-статистика

Создавать темы 20-Май-2015 07:40

[Цитировать]

-- --Салем / Salem Сезон 1-2, Серии 1-26 из 26 -- --Год выпуска: 2014-2015
Выпущено: США, Tribune Studios, Twentieth Century Fox Television
Жанр: Ужасы, Фантастика, триллер, драма
Продолжительность: 00:52:00
Сезон: 1-2
Серия: 1-26
Количество серий в сезоне: 26
Озвучка:Профессиональная многоголосая закадровая(AlexFilm)Ирина Воронова,
Александр Воронов,
Михаил Суслов,
Сергей Пономарёв,Владимир Курдов

Перевод: Doctor Joker и MartinaG
Субтитры: Английские--Официальный сайт сериала
--Режиссер: Ричард Шепард--В ролях: Шэйн Уэст, Джанет Монтгомери, Эжур Дэун, Моргана Шоу, Сет Гейбл, Ксандер Беркли, Эшли Мадекве, Элиз Эберли, Джон Артур, Кристофер Берри-- Действие сериала разворачивается в средневековом Салеме, известной мекке всех ведьм. Но если реальная салемская оказалась фикцией, то сериал прямо-таки силой заставляет поверить в невозможное.
Отчаявшаяся девушка, возлюбленный которой отправился на фронт, решается на страшный шаг — продает свою душу тому самому дьяволу, любимой страшилке всех околохристианских религий. Теперь сможет отомстить за свои страдания всем пуританам — это, к слову, чуть ли не основное ругательство в сериале.
Снято, конечно, потрясающе. По сравнению с «ведьмовской» частью «Американской ужасов» «Салем» выигрывает по всем пунктам — это не гламурное, кокетливое сборище юных леди, это настоящая паутина из страстей, вины, мести и жестокости. Актерская игра на очень высоком уровне, что не удивительно — кастинг проводился явно не по принципу «где бы понабрать красивых и известных мордашек». Средневековье — штука неприятная и грязноватая. Так что и впечатления от просмотра соответствующие — жуть, честно скажу, пробирает.
Что интересно, в сериале, можно сказать, нет чисто положительных персонажей — главную героиню, конечно, жалко, но ведьма из нее получается полноценная. Да и главный , сильный и не стесняющийся противоречить властям, тоже обладает своими . Что уж говорить, к примеру, о священнике, прославленном охотнике на ведьм, чья благочестивость отлично сочетается с посещениями борделя и пристрастием к выпивке…
Словом, сериал радует. И галерея персонажей, и антураж, и прочие нюансы проработаны на отлично. Любителям жестоких мистических сериалов должно понравится!
-- --Качество : WEB-DLRip-AVC 1080p
Формат: MPEG-4
Видео кодек: H264
Видео: 7243ит/сек,1920х1080(16.9),в 25.000кадр/сек,AVC(Baseline@L4.0)(1Ref Frames)
Аудио кодек: AAC
Аудио Russian Dolby Digital 5.1:483Кбит/сек,48.0КГц,6каналов,AAC,(Version4)(LC)
Отдельным Файлом
Аудио #1:AC3 , 640 Kbps, 48.0 KHz, 6 ch- - NewStudio
Аудио #2: AC3, 640 Kbps, 48.0 KHz, 6 ch - - LostFilm
Аудио #3: AC3, 640 Kbps, 48.0 KHz, 6 ch - -AlexFilm
Аудио #4: AC3, 640 Kbps, 48.0 KHz, 6 ch - - BaibaKo
Аудио #5: AC3, 640 Kbps, 48.0 KHz,6 ch - - English--

Доп. информация:

Звуковая дорожка сделана путем наложения чистого голоса озвучивателей на центральный канал оригинальной дорожки. Качество идентично звуковой дорожке.
--

Список эпизодов сезонов

1СЕЗОН
01 Обещание (The Vow)
02 Каменное дитя (The Stone Child)
03 Напрасно (In Vain)
04 Выжившие (Survivors)
05 (Lies)
06 Шиповник и алая роза (The Red Rose and the Briar)
07 Собственная Америка (Our Own Private America)
08 Отправная точка (Departures)
09 Бойтесь, дети!( Children, Be Afraid)
10 Дом боли (The House of Pain)
11 Кошки-мышки (Cat and Mouse)
2 Пепел, Пепел (Ashes, Ashes)
13. Все умрут (All Fall Down)

2СЕЗОН
01. К убийству призывая /Cry Havoc
02. Кровавый поцелуй /Blood Kiss
03. Изнутри /From Within
04. Книга теней /Book of Shadows
05. Виноцветное море /The Wine Dark Sea
06. К добру ли эта встреча при луне / Ill Met by Moonlight
07. Манящая / The Beckoning Fair One
08 Мертвые птицы / Dead Birds
09 Плата за грехи / Wages of Sin
10 Пока смерть не разлучит нас / Til Death Do Us Part
11. Ад на земле / On Earth as in Hell
12. Полночи не бывать / Midnight Never Come
13. Ведьмин час / The Witching Hour
--

MediaInfo 1сезона

Общее
Полное имя : E:\УЖАСЫ\САЛЕМ\SALEM_2014_-_2015_S01_-_S02_RUS[AlexFilm]_DD5.1_x264_Nikolai.Baranov_WEB-DLRip-AVC_(1080p)\S01\Salem_2014_S01E01_RUS[AlexFilm]_DD5.1_x264_Nikolai.Baranov_WEB-DLRip-AVC_(1080p).mp4
Формат : MPEG-4
Профиль формата : Base Media
Идентификатор кодека : isom
Размер файла : 2,82 Гбайт
Продолжительность : 52 м.
Режим общего битрейта : Переменный
Общий поток : 7730 Кбит/сек
Название фильма : Crossbones 1x01 The Devil's Dominion @ AlexFilm
Дата кодирования : UTC 2014-06-29 18:16:45
Дата пометки : UTC 2014-06-29 18:16:45
Программа кодирования : Lavf51.12.1
Видео
Идентификатор : 1
Формат : AVC
Формат/Информация : Advanced Video Codec
Профиль формата : Baseline@L4
Параметр CABAC формата : Нет
Параметр ReFrames формата : 1 кадр
Параметр GOP формата : M=1, N=12
Идентификатор кодека : avc1
Идентификатор кодека/Информация : Advanced Video Coding
Продолжительность : 52 м.
Вид битрейта : Переменный
Битрейт : 7243 Кбит/сек
Максимальный битрейт : 10,5 Мбит/сек
Ширина : 1920 пикселей
Высота : 1080 пикселей
Соотношение сторон : 16:9
Режим частоты кадров : Постоянный
Частота кадров : 25,000 кадров/сек
Частота кадров в оригинале : 24,000 кадра/сек
Цветовое пространство : YUV
Субдискретизация насыщенности : 4:2:0
Битовая глубина : 8 бит
Тип развёртки : Прогрессивная
Бит/(Пиксели*Кадры) : 0.140
Размер потока : 2,65 Гбайт (94%)
Язык : English
Дата кодирования : UTC 2014-06-29 18:16:45
Дата пометки : UTC 2014-06-29 18:16:45
Аудио
Идентификатор : 2
Формат : AAC
Формат/Информация : Advanced Audio Codec
Профиль формата : LC
Идентификатор кодека : 40
Продолжительность : 52 м.
Вид битрейта : Переменный
Битрейт : 483 Кбит/сек
Каналы : 2 канала
Channel(s)_Original : 6 каналов
Расположение каналов : Front: L C R, Side: L R, LFE
Частота : 48,0 КГц
Метод сжатия : С потерями
Размер потока : 181 Мбайт (6%)
Язык : Russian
Дата кодирования : UTC 2014-06-29 18:16:45
Дата пометки : UTC 2014-06-29 18:16:45
--

MediaInfo 2сезона

Общее
Полное имя : E:\УЖАСЫ\САЛЕМ\SALEM_2014_-_2015_S01_-_S02_RUS[AlexFilm]_DD5.1_x264_Nikolai.Baranov_WEB-DLRip-AVC_(1080p)\S02\Salem_2015_S02E01_RUS[AlexFilm]_DD5.1_x264_Nikolai.Baranov_WEB-DLRip-AVC_(1080p).mp4
Формат : MPEG-4
Профиль формата : Base Media
Идентификатор кодека : isom
Размер файла : 2,72 Гбайт
Продолжительность : 50 м.
Режим общего битрейта : Переменный
Общий поток : 7744 Кбит/сек
Дата кодирования : UTC 2015-05-02 11:23:33
Дата пометки : UTC 2015-05-02 11:23:33
Программа кодирования : Lavf51.12.1
Видео
Идентификатор : 1
Формат : AVC
Формат/Информация : Advanced Video Codec
Профиль формата : Baseline@L4
Параметр CABAC формата : Нет
Параметр ReFrames формата : 1 кадр
Параметр GOP формата : M=1, N=12
Идентификатор кодека : avc1
Идентификатор кодека/Информация : Advanced Video Coding
Продолжительность : 50 м.
Вид битрейта : Переменный
Битрейт : 7255 Кбит/сек
Максимальный битрейт : 10,5 Мбит/сек
Ширина : 1920 пикселей
Высота : 1080 пикселей
Соотношение сторон : 16:9
Режим частоты кадров : Постоянный
Частота кадров : 25,000 кадров/сек
Частота кадров в оригинале : 24,000 кадра/сек
Цветовое пространство : YUV
Субдискретизация насыщенности : 4:2:0
Битовая глубина : 8 бит
Тип развёртки : Прогрессивная
Бит/(Пиксели*Кадры) : 0.140
Размер потока : 2,55 Гбайт (94%)
Язык : English
Дата кодирования : UTC 2015-05-02 11:23:33
Дата пометки : UTC 2015-05-02 11:23:33
Аудио
Идентификатор : 2
Формат : AAC
Формат/Информация : Advanced Audio Codec
Профиль формата : LC
Идентификатор кодека : 40
Продолжительность : 50 м.
Вид битрейта : Переменный
Битрейт : 484 Кбит/сек
Каналы : 2 канала
Channel(s)_Original : 6 каналов
Расположение каналов : Front: L C R, Side: L R, LFE
Частота : 48,0 КГц
Метод сжатия : С потерями
Размер потока : 174 Мбайт (6%)
Язык : Russian
Дата кодирования : UTC 2015-05-02 11:23:33
Дата пометки : UTC 2015-05-02 11:23:33
--

Скриншоты 1сезона

--

Скриншоты 2сезона

- 1сезон-- 2сезон--

Как закачать отдельный файл

1. Открыть торрент
2. Снять галки с тех файлов торрента, которые мы не хотим закачивать. Оставляем только на нужных нам файлах (файле).
3. Нажать О.К.
В клиенте utorrent
Инструкция
1) Открыть торрент

2) Снять галки с тех файлов торрента, которые мы не хотим закачивать:
* либо вручную, снимая с каждого файла галку( скрин №1)
* либо, нажав кнопку "Снять метки (Select None)", сняв сразу со всех файлов(скрин №2)
№1

№2

Оставляем только на нужных нам файлах (файле).

3)Нажать О.К
-- -- --Внимание!!! 04.07. 2015. РАЗДАЧА ОБНОВЛЕНА.ФИНАЛ СЕЗОНА. ОБНОВИТЕ ТОРЕНТ ФАЙЛ.ПРИЯТНОГО ПРОСМОТРА . --Релиз от: Nikolai.Baranov -- -- -- --
[Профиль] [ЛС]
Показать сообщения:    

Текущее время: Сегодня 05:20

Часовой пояс: GMT



Вы не можете начинать темы
Вы не можете отвечать на сообщения
Вы не можете редактировать свои сообщения
Вы не можете удалять свои сообщения
Вы не можете голосовать в опросах
Вы не можете прикреплять файлы к сообщениям
Вы не можете скачивать файлы